.
Авторизация | Регистрация
bitok.xyz
Торрент скачать бесплатно Фильмы торрент скачать Титаник / Titanic (1997) BDRip [H.264 / 1080p] [Open Matte] [Remastered] [PR] торрент скачать бесплатно


    Титаник / Titanic (1997) BDRip [H.264 / 1080p] [Open Matte] [Remastered] [PR] торрент скачать бесплатно

    Дата: 31-01-2020, 05:00 | .torrent скачали: 0

    Титаник / Titanic (1997) BDRip [H.264 / 1080p] [Open Matte] [Remastered] [PR]Производство: США/20th Century Fox, Lightstorm Entertainment, Paramount Pictures
    Жанр: драма, мелодрама, триллер
    Режиссер: Джеймс Кэмерон

    Актеры
    Леонардо ДиКаприо, Кейт Уинслет, Билли Зейн, Кэти Бейтс, Фрэнсис Фишер, Глория Стюарт, Билл Пэкстон, Бернард Хилл, Дэвид Уорнер, Виктор Гарбер

    Описание

    В первом и последнем плавании шикарного Титаника встречаются двое. Пассажир нижней палубы Джек выиграл билет в карты, а богатая наследница Роза отправляется в Америку, чтобы выйти замуж по расчёту. Чувства молодых людей только успевают расцвести, и даже не классовые различия создадут испытания влюблённым, а айсберг, вставший на пути считавшегося непотопляемым лайнера.

    Возраст: 12+ (зрителям, достигшим 12 лет)
    Рейтинг MPAA: PG-13 (детям до 13 лет просмотр нежелателен)
    Продолжительность: 03: 14: 58
    Качество видео: BDRip
    Перевод: Дублированный, многоголосый, двухголосый
    Субтитры: русские, английские
    Видео: AVC/H.264, 1920x1080, 23.976 fps, ~11.4 Mbps
    Аудио 1 : AC3, 6 ch, 448 kbps - Русский (DUB 2012)
    Аудио 2 : AC3, 6 ch, 448 kbps - Русский (DUB R5)
    Аудио 3 : AC3, 6 ch, 384 kbps - Русский (MVO Киномания)
    Аудио 4 : AC3, 6 ch, 448 kbps - Русский (MVO НТВ+)
    Аудио 5 : AC3, 6 ch, 448 kbps - Русский (DVO Гланц и Королева)
    Аудио 6 : AC3, 6 ch, 448 kbps - АнглийскийGeneral
    Unique ID : 194570307994836503294435478148211919674 (0x9260E0D4B3F81DDDB85515F988D5CB3A)
    Complete name : Титаник (1997) Open Matte.mkv
    Format : Matroska
    Format version : Version 4
    File size : 19.1 GiB
    Duration : 3 h 14 min
    Overall bit rate : 14.0 Mb/s
    Encoded date : UTC 2020-01-24 17: 01: 32
    Writing application : mkvmerge v8.3.0 (\'Over the Horizon\') 32bit
    Writing library : libebml v1.3.1 + libmatroska v1.4.2
    Video
    ID : 1
    Format : AVC
    Format/Info : Advanced Video Codec
    Format profile : Baseline@L3
    Format settings : 1 Ref Frames
    Format settings, CABAC : No
    Format settings, Reference : 1 frame
    Codec ID : V_MPEG4/ISO/AVC
    Duration : 3 h 14 min
    Bit rate : 11.4 Mb/s
    Width : 1 920 pixels
    Height : 1 080 pixels
    Display aspect ratio : 16: 9
    Frame rate mode : Constant
    Frame rate : 23.976 (24000/1001) FPS
    Color space : YUV
    Chroma subsampling : 4: 2: 0
    Bit depth : 8 bits
    Scan type : Progressive
    Bits/(Pixel*Frame) : 0.229
    Stream size : 15.5 GiB (81%)
    Default : Yes
    Forced : No
    Audio #1
    ID : 2
    Format : AC-3
    Format/Info : Audio Coding 3
    Commercial name : Dolby Digital
    Codec ID : A_AC3
    Duration : 3 h 14 min
    Bit rate mode : Constant
    Bit rate : 448 kb/s
    Channel(s) : 6 channels
    Channel layout : L R C LFE Ls Rs
    Sampling rate : 48.0 kHz
    Frame rate : 31.250 FPS (1536 SPF)
    Bit depth : 16 bits
    Compression mode : Lossy
    Stream size : 624 MiB (3%)
    Title : DUB 2012
    Language : Russian
    Service kind : Complete Main
    Default : Yes
    Forced : No
    Audio #2
    ID : 3
    Format : AC-3
    Format/Info : Audio Coding 3
    Commercial name : Dolby Digital
    Codec ID : A_AC3
    Duration : 3 h 14 min
    Bit rate mode : Constant
    Bit rate : 448 kb/s
    Channel(s) : 6 channels
    Channel layout : L R C LFE Ls Rs
    Sampling rate : 48.0 kHz
    Frame rate : 31.250 FPS (1536 SPF)
    Bit depth : 16 bits
    Compression mode : Lossy
    Stream size : 624 MiB (3%)
    Title : DUB R5
    Language : Russian
    Service kind : Complete Main
    Default : No
    Forced : No
    Audio #3
    ID : 4
    Format : AC-3
    Format/Info : Audio Coding 3
    Commercial name : Dolby Digital
    Codec ID : A_AC3
    Duration : 3 h 14 min
    Bit rate mode : Constant
    Bit rate : 384 kb/s
    Channel(s) : 6 channels
    Channel layout : L R C LFE Ls Rs
    Sampling rate : 48.0 kHz
    Frame rate : 31.250 FPS (1536 SPF)
    Bit depth : 16 bits
    Compression mode : Lossy
    Stream size : 535 MiB (3%)
    Title : MVO Киномания
    Language : Russian
    Service kind : Complete Main
    Default : No
    Forced : No
    Audio #4
    ID : 5
    Format : AC-3
    Format/Info : Audio Coding 3
    Commercial name : Dolby Digital
    Codec ID : A_AC3
    Duration : 3 h 14 min
    Bit rate mode : Constant
    Bit rate : 448 kb/s
    Channel(s) : 6 channels
    Channel layout : L R C LFE Ls Rs
    Sampling rate : 48.0 kHz
    Frame rate : 31.250 FPS (1536 SPF)
    Bit depth : 16 bits
    Compression mode : Lossy
    Stream size : 624 MiB (3%)
    Title : MVO НТВ+
    Language : Russian
    Service kind : Complete Main
    Default : No
    Forced : No
    Audio #5
    ID : 6
    Format : AC-3
    Format/Info : Audio Coding 3
    Commercial name : Dolby Digital
    Codec ID : A_AC3
    Duration : 3 h 14 min
    Bit rate mode : Constant
    Bit rate : 448 kb/s
    Channel(s) : 6 channels
    Channel layout : L R C LFE Ls Rs
    Sampling rate : 48.0 kHz
    Frame rate : 31.250 FPS (1536 SPF)
    Bit depth : 16 bits
    Compression mode : Lossy
    Stream size : 624 MiB (3%)
    Title : DVO Гланц и Королева
    Language : Russian
    Service kind : Complete Main
    Default : No
    Forced : No
    Audio #6
    ID : 7
    Format : AC-3
    Format/Info : Audio Coding 3
    Commercial name : Dolby Digital
    Codec ID : A_AC3
    Duration : 3 h 14 min
    Bit rate mode : Constant
    Bit rate : 448 kb/s
    Channel(s) : 6 channels
    Channel layout : L R C LFE Ls Rs
    Sampling rate : 48.0 kHz
    Frame rate : 31.250 FPS (1536 SPF)
    Bit depth : 16 bits
    Compression mode : Lossy
    Stream size : 624 MiB (3%)
    Language : English
    Service kind : Complete Main
    Default : No
    Forced : No
    Text #1
    ID : 8
    Format : UTF-8
    Codec ID : S_TEXT/UTF8
    Codec ID/Info : UTF-8 Plain Text
    Duration : 3 h 1 min
    Bit rate : 83 b/s
    Count of elements : 2031
    Stream size : 111 KiB (0%)
    Language : Russian
    Default : No
    Forced : No
    Text #2
    ID : 9
    Format : UTF-8
    Codec ID : S_TEXT/UTF8
    Codec ID/Info : UTF-8 Plain Text
    Duration : 3 h 1 min
    Bit rate : 46 b/s
    Count of elements : 2083
    Stream size : 61.1 KiB (0%)
    Language : English
    Default : No
    Forced : No

    Онлайн видео Титаник


    Титаник/Titanic (1997) BDRip [H.264/1080p] [Open Matte] [Remastered] [PR]

    Титаник / Titanic (1997) BDRip [H.264 / 1080p] [Open Matte] [Remastered] [PR] торрент скачать бесплатно
    Рейтинг →
     (голосов: 1, оценка 3/5, голосовать можно 1 раз )

    Другие торренты по теме:

  • Титаник / Titanic (1997) BDRip [H.264] [Open Matte]
  • Титаник / Titanic (1997) BDRip [H.264 / 720p] [Open matte] скачать через торрент бесплатно
  • Титаник / Titanic (1997) BDRip [H.264 / 1080p-LQ] скачать через торрент бесплатно
  • Титаник / Titanic (1997) BDRip [H.264 / 1080p-LQ] [Open Matte]
  • Титаник / Titanic (1953) BDRip [H.265 / 1080p-LQ]
  • Титаник / Titanic (1997) BDRip [H.264 / 1080p-LQ]
  • Титаник / Titanic (1997) BDRip [H.264 / 720p-LQ] [Open Matte]
  • Титаник / Titanic (1997) UHD BDRemux [H.265 / 2160p] [4K, HDR, 10-bit] [Remastered]


    • Комментарии (0):

      Информация

      Информация

        Посетители, находящиеся в группе Гости, не могут оставлять комментарии в данной новости.

        ↓ Меню




        ↓ Опрос

        Вы добавили сайт в закладки?
        Да
        Нет


        Популярное