.
Авторизация | Регистрация
bitok.xyz
Торрент скачать бесплатно Фильмы торрент скачать Дом 3: Шоу ужасов / The Horror Show (1989) BDRip [H.264] торрент скачать бесплатно


    Дом 3: Шоу ужасов / The Horror Show (1989) BDRip [H.264] торрент скачать бесплатно

    Дата: 31-01-2020, 05:00 | .torrent скачали: 0

    Дом 3: Шоу ужасов / The Horror Show (1989) BDRip [H.264]Производство: США/Sean S. Cunningham Films
    Жанр: Ужасы
    Режиссер: Джеймс Исаак, Дэвид Блит
    Продюсер: Шон С. Каннингэм

    Актеры
    Лэнс Хенриксен, Брайон Джеймс, Рита Таггарт, Диди Пфайффер, Арон Эйзенберг, Том Брэй, Мэтт Кларк, Дэвид Оливер, Терри Александр, Льюис Аркетт

    Описание

    Убийца мистическим образом оживает и мстит семье полицейского, арестовавшего его. Их сны превращаются в жуткие кошмары…

    Возраст: 16+ (зрителям, достигшим 16 лет)
    Рейтинг MPAA: R (лицам до 17 лет обязательно присутствие взрослого)
    Релиз от: Охрана (NNMCLUB)
    Продолжительность: 01: 35: 16
    Качество видео: BDRip
    Перевод: Двуголосый профессиональный, авторский
    Субтитры: Английские
    Видео: AVC/H.264, 1024x552, ~2704 Kbps
    Аудио 1: AC3, 2 ch, 192 Kbps, 48.0 kHz – Русский DVO, Ren-TV
    Аудио 2: AC3, 2 ch, 192 Kbps, 48.0 kHz – Русский AVO, С. Визгунов
    Аудио 3: AC3, 2 ch, 192 Kbps, 48.0 kHz – Английский
    Общее
    Уникальный идентификатор : 244264873037881493321934320453599384475 (0xB7C3B40DBBD658FD852AB4CC0EB0539B)
    Полное имя : B: DownloadsДом 3. Шоу ужасов. 1989. NNMCLUB.mkv
    Формат : Matroska
    Версия формата : Version 4/Version 2
    Размер файла : 2, 18 Гбайт
    Продолжительность : 1 ч. 35 м.
    Общий поток : 3281 Кбит/сек
    Дата кодирования : UTC 2020-01-29 21: 58: 34
    Программа кодирования : mkvmerge v7.9.0 (\'Birds\') 64bit
    Библиотека кодирования : libebml v1.3.1 + libmatroska v1.4.2
    Видео
    Идентификатор : 1
    Формат : AVC
    Формат/Информация : Advanced Video Codec
    Профиль формата : High@L4.1
    Настройки формата : CABAC/12 Ref Frames
    Параметр CABAC формата : Да
    Параметр RefFrames формата : 12 кадров
    Идентификатор кодека : V_MPEG4/ISO/AVC
    Продолжительность : 1 ч. 35 м.
    Битрейт : 2704 Кбит/сек
    Ширина : 1024 пикселя
    Высота : 552 пикселя
    Соотношение сторон : 1, 85: 1
    Режим частоты кадров : Постоянный
    Частота кадров : 23, 976 (24000/1001) кадра/сек
    Цветовое пространство : YUV
    Субдискретизация насыщенности : 4: 2: 0
    Битовая глубина : 8 бит
    Тип развёртки : Прогрессивная
    Бит/(Пиксели*Кадры) : 0.200
    Размер потока : 1, 80 Гбайт (82%)
    Заголовок : The Horror Show
    Библиотека кодирования : x264 core 146 r2538 121396c
    Настройки программы : cabac=1/ref=12/deblock=1: -1: -1/analyse=0x3: 0x113/me=umh/subme=10/psy=1/psy_rd=1.00: 0.10/mixed_ref=1/me_range=32/chroma_me=1/trellis=2/8x8dct=1/cqm=0/deadzone=21, 11/fast_pskip=0/chroma_qp_offset=-3/threads=6/lookahead_threads=1/sliced_threads=0/nr=0/decimate=0/interlaced=0/bluray_compat=0/constrained_intra=0/bframes=7/b_pyramid=2/b_adapt=2/b_bias=0/direct=3/weightb=1/open_gop=0/weightp=2/keyint=250/keyint_min=25/scenecut=40/intra_refresh=0/rc_lookahead=60/rc=2pass/mbtree=1/bitrate=2704/ratetol=1.0/qcomp=0.60/qpmin=0/qpmax=69/qpstep=4/cplxblur=20.0/qblur=0.5/vbv_maxrate=14000/vbv_bufsize=14000/nal_hrd=none/filler=0/ip_ratio=1.40/aq=1: 1.00
    Язык : English
    Default : Да
    Forced : Нет
    Аудио #1
    Идентификатор : 2
    Формат : AC-3
    Формат/Информация : Audio Coding 3
    Идентификатор кодека : A_AC3
    Продолжительность : 1 ч. 35 м.
    Вид битрейта : Постоянный
    Битрейт : 192 Кбит/сек
    Каналы : 2 канала
    Расположение каналов : Front: L R
    Частота : 48, 0 КГц
    Частота кадров : 31, 250 кадров/сек (1536 SPF)
    Битовая глубина : 16 бит
    Метод сжатия : С потерями
    Размер потока : 131 Мбайт (6%)
    Заголовок : Двуголосый профессиональный, Ren-TV
    Язык : Russian
    ServiceKind/String : Complete Main
    Default : Да
    Forced : Нет
    Аудио #2
    Идентификатор : 3
    Формат : AC-3
    Формат/Информация : Audio Coding 3
    Идентификатор кодека : A_AC3
    Продолжительность : 1 ч. 35 м.
    Вид битрейта : Постоянный
    Битрейт : 192 Кбит/сек
    Каналы : 2 канала
    Расположение каналов : Front: L R
    Частота : 48, 0 КГц
    Частота кадров : 31, 250 кадров/сек (1536 SPF)
    Битовая глубина : 16 бит
    Метод сжатия : С потерями
    Размер потока : 131 Мбайт (6%)
    Заголовок : Авторский, С. Визгунов
    Язык : Russian
    ServiceKind/String : Complete Main
    Default : Нет
    Forced : Нет
    Аудио #3
    Идентификатор : 4
    Формат : AC-3
    Формат/Информация : Audio Coding 3
    Идентификатор кодека : A_AC3
    Продолжительность : 1 ч. 35 м.
    Вид битрейта : Постоянный
    Битрейт : 192 Кбит/сек
    Каналы : 2 канала
    Расположение каналов : Front: L R
    Частота : 48, 0 КГц
    Частота кадров : 31, 250 кадров/сек (1536 SPF)
    Битовая глубина : 16 бит
    Метод сжатия : С потерями
    Размер потока : 131 Мбайт (6%)
    Заголовок : Английский
    Язык : English
    ServiceKind/String : Complete Main
    Default : Нет
    Forced : Нет
    Текст
    Идентификатор : 5
    Формат : UTF-8
    Идентификатор кодека : S_TEXT/UTF8
    Идентификатор кодека/Информация : UTF-8 Plain Text
    Продолжительность : 1 ч. 33 м.
    Битрейт : 36 бит/сек
    ElementCount : 757
    Размер потока : 25, 4 Кбайт (0%)
    Заголовок : Full
    Язык : English
    Default : Нет
    Forced : Нет

    Скриншоты для ознакомления




    Все одноименные релизы в Клубе
    Время раздачи: с 13: 00 до 01: 00 МСК, выходные круглосуточно (до появления первых 3-5 скачавших)

    Онлайн видео Дом 3: Шоу ужасов


    Дом 3: Шоу ужасов/The Horror Show (1989) BDRip [H.264]

    Дом 3: Шоу ужасов / The Horror Show (1989) BDRip [H.264] торрент скачать бесплатно
    Рейтинг →
     (голосов: 1, оценка 3/5, голосовать можно 1 раз )

    Другие торренты по теме:

  • Поезд ужасов / Horror Express (1972) BDRip [H.264] [VO]
  • Американская история ужасов / American Horror Story (2014) WEB-DLRip (сезон 4, серии 1 из ) LostFilm (oбновляемая) скачать через торрент бесплатно
  • Американская история ужасов: Фрик-шоу / American Horror Story: Freak Show (2014) HDTVRip (Сезон 4 Серии 01-02 из 13) Новамедиа (обновляемая) скачать через торрент бесплатно
  • Американская история ужасов / American Horror Story (2014) WEB-DLRip (сезон 4, серии 1-2 из 13) NewStudio (oбновляемая) скачать через торрент бесплатно
  • Американская история ужасов / American Horror Story (2014) WEB-DLRip (сезон 4, серии 1-2 из 13) BaibaKo (oбновляемая) скачать через торрент бесплатно
  • Американская история ужасов: Фрик-шоу (American Horror Story: Freak Show) / (Сезон 4, серии 1-7 из 13) LostFilm (2014) [MP4|1280x720] <WEB-DLRip H.264>
  • Американская история ужасов / American Horror Story (2014) WEB-DL [H.264 / 720p-LQ] (Сезон 4, серии 1-9 из 13) (LostFilm) (обновляемая) скачать через торрент бесплатно
  • Американская история ужасов / American Horror Story (2014) WEB-DL [H.264 / 720p-LQ] (сезон 4, серии 1-12 из 13) (LostFilm, Кубик в Кубе) (обновляемая)


    • Комментарии (0):

      Информация

      Информация

        Посетители, находящиеся в группе Гости, не могут оставлять комментарии в данной новости.

        ↓ Меню




        ↓ Опрос

        Вы добавили сайт в закладки?
        Да
        Нет


        Популярное