.
Авторизация | Регистрация
bitok.xyz
Торрент скачать бесплатно Фильмы торрент скачать Предчувствие / Premonition (2007) WEB-DL [H.264 / 1080p-LQ] [Open Matte] торрент скачать бесплатно


    Предчувствие / Premonition (2007) WEB-DL [H.264 / 1080p-LQ] [Open Matte] торрент скачать бесплатно

    Дата: 31-01-2020, 05:00 | .torrent скачали: 0

    Предчувствие / Premonition (2007) WEB-DL [H.264 / 1080p-LQ] [Open Matte]Производство: США/TriStar Pictures, Metro-Goldwyn-Mayer (MGM), Hyde Park Entertainment
    Жанр: фэнтези, триллер, драма, детектив
    Режиссер: Меннан Япо

    Актеры
    Сандра Буллок, Джулиан МакМэхон, Шайэн МакКлюр, Кортни Тэйлор Бернесс, Ниа Лонг, Марк Маколей, Кейт Неллиган, Ирен Циглер, Филлип ДеВона, Ричи Монтгомери

    Описание

    У каждого в жизни хоть раз было предчувствие беды. Когда просто знаешь, что скоро произойдет что-то плохое. Домохозяйку Линду сейчас как раз охватило такое предчувствие. Некоторое время спустя шериф города сообщает ей, что ее муж погиб в автокатастрофе. Не зная себя от горя и отчаяния, Линда не находит себе места — она не верит, что такое могло произойти. Проснувшись утром на следующий день, она видит своего мужа целым и невредимым…
    Вскоре Линда поймет, что это было не простое предчувствие, и теперь она должна предотвратить трагедию.

    Возраст: 16+ (зрителям, достигшим 16 лет)
    Рейтинг MPAA: PG-13 (детям до 13 лет просмотр нежелателен)
    Продолжительность: 01: 36: 21
    Качество видео: WEB-DL 1080p
    Перевод: Дублированный, двухголосый, авторский
    Субтитры: русские, английские
    Видео: AVC/H.264, 1920x1080 (16: 9), 23.976 fps, ~7641 Kbps
    Аудио 1 : AC3, 6 ch, 448 kbps - Русский (DUB)
    Аудио 2 : AC3, 2 ch, 192 kbps - Русский (DVO)
    Аудио 3 : AC3, 6 ch, 448 kbps - Русский (AVO Есарев)
    Аудио 4 : AC3, 6 ch, 448 kbps - Русский (AVO Иванов)
    Аудио 5 : E-AC3, 6 ch, 640 kbps - Английский
    General
    Unique ID : 172516316672507949254564561618096484170 (0x81C96F1BC54D39FD9C2CB51D23CDEF4A)
    Complete name : D: Premonition (2007) Open Matte 1080p.mkv
    Format : Matroska
    Format version : Version 4
    File size : 6.61 GiB
    Duration : 1 h 36 min
    Overall bit rate : 9 819 kb/s
    Encoded date : UTC 2020-01-28 17: 41: 23
    Writing application : mkvmerge v8.3.0 (\'Over the Horizon\') 32bit
    Writing library : libebml v1.3.1 + libmatroska v1.4.2
    Video
    ID : 1
    Format : AVC
    Format/Info : Advanced Video Codec
    Format profile : High@L4
    Format settings : CABAC/4 Ref Frames
    Format settings, CABAC : Yes
    Format settings, Reference : 4 frames
    Codec ID : V_MPEG4/ISO/AVC
    Duration : 1 h 36 min
    Bit rate : 7 641 kb/s
    Width : 1 920 pixels
    Height : 1 080 pixels
    Display aspect ratio : 16: 9
    Frame rate mode : Constant
    Frame rate : 23.976 (24000/1001) FPS
    Color space : YUV
    Chroma subsampling : 4: 2: 0
    Bit depth : 8 bits
    Scan type : Progressive
    Bits/(Pixel*Frame) : 0.154
    Stream size : 5.14 GiB (78%)
    Default : Yes
    Forced : No
    Color range : Limited
    Color primaries : BT.709
    Transfer characteristics : BT.709
    Matrix coefficients : BT.709
    Audio #1
    ID : 2
    Format : AC-3
    Format/Info : Audio Coding 3
    Commercial name : Dolby Digital
    Codec ID : A_AC3
    Duration : 1 h 36 min
    Bit rate mode : Constant
    Bit rate : 448 kb/s
    Channel(s) : 6 channels
    Channel layout : L R C LFE Ls Rs
    Sampling rate : 48.0 kHz
    Frame rate : 31.250 FPS (1536 SPF)
    Bit depth : 16 bits
    Compression mode : Lossy
    Stream size : 309 MiB (5%)
    Title : DUB
    Language : Russian
    Service kind : Complete Main
    Default : Yes
    Forced : No
    Audio #2
    ID : 3
    Format : AC-3
    Format/Info : Audio Coding 3
    Commercial name : Dolby Digital
    Codec ID : A_AC3
    Duration : 1 h 36 min
    Bit rate mode : Constant
    Bit rate : 192 kb/s
    Channel(s) : 2 channels
    Channel layout : L R
    Sampling rate : 48.0 kHz
    Frame rate : 31.250 FPS (1536 SPF)
    Bit depth : 16 bits
    Compression mode : Lossy
    Stream size : 132 MiB (2%)
    Title : DVO
    Language : Russian
    Service kind : Complete Main
    Default : No
    Forced : No
    Audio #3
    ID : 4
    Format : AC-3
    Format/Info : Audio Coding 3
    Commercial name : Dolby Digital
    Codec ID : A_AC3
    Duration : 1 h 36 min
    Bit rate mode : Constant
    Bit rate : 448 kb/s
    Channel(s) : 6 channels
    Channel layout : L R C LFE Ls Rs
    Sampling rate : 48.0 kHz
    Frame rate : 31.250 FPS (1536 SPF)
    Bit depth : 16 bits
    Compression mode : Lossy
    Stream size : 309 MiB (5%)
    Title : AVO Есарев
    Language : Russian
    Service kind : Complete Main
    Default : No
    Forced : No
    Audio #4
    ID : 5
    Format : AC-3
    Format/Info : Audio Coding 3
    Commercial name : Dolby Digital
    Codec ID : A_AC3
    Duration : 1 h 36 min
    Bit rate mode : Constant
    Bit rate : 448 kb/s
    Channel(s) : 6 channels
    Channel layout : L R C LFE Ls Rs
    Sampling rate : 48.0 kHz
    Frame rate : 31.250 FPS (1536 SPF)
    Bit depth : 16 bits
    Compression mode : Lossy
    Stream size : 309 MiB (5%)
    Title : AVO Иванов
    Language : Russian
    Service kind : Complete Main
    Default : No
    Forced : No
    Audio #5
    ID : 6
    Format : E-AC-3
    Format/Info : Enhanced AC-3
    Commercial name : Dolby Digital Plus
    Codec ID : A_EAC3
    Duration : 1 h 36 min
    Bit rate mode : Constant
    Bit rate : 640 kb/s
    Channel(s) : 6 channels
    Channel layout : L R C LFE Ls Rs
    Sampling rate : 48.0 kHz
    Frame rate : 31.250 FPS (1536 SPF)
    Compression mode : Lossy
    Stream size : 441 MiB (7%)
    Language : English
    Service kind : Complete Main
    Default : No
    Forced : No
    Text #1
    ID : 7
    Format : UTF-8
    Codec ID : S_TEXT/UTF8
    Codec ID/Info : UTF-8 Plain Text
    Duration : 1 h 32 min
    Bit rate : 67 b/s
    Count of elements : 1098
    Stream size : 45.9 KiB (0%)
    Language : Russian
    Default : No
    Forced : No
    Text #2
    ID : 8
    Format : UTF-8
    Codec ID : S_TEXT/UTF8
    Codec ID/Info : UTF-8 Plain Text
    Duration : 1 h 31 min
    Bit rate : 44 b/s
    Count of elements : 935
    Stream size : 30.1 KiB (0%)
    Language : English
    Default : No
    Forced : No


    Онлайн видео Предчувствие


    Предчувствие/Premonition (2007) WEB-DL [H.264/1080p-LQ] [Open Matte]

    Предчувствие / Premonition (2007) WEB-DL [H.264 / 1080p-LQ] [Open Matte] торрент скачать бесплатно
    Рейтинг →
     (голосов: 1, оценка 4/5, голосовать можно 1 раз )

    Другие торренты по теме:

  • Предчувствие / Premonition (2007) BDRemux [H.264 / 1080p] скачать через торрент бесплатно


    • Комментарии (0):

      Информация

      Информация

        Посетители, находящиеся в группе Гости, не могут оставлять комментарии в данной новости.

        ↓ Меню




        ↓ Опрос

        Вы добавили сайт в закладки?
        Да
        Нет


        Популярное