.
Авторизация | Регистрация
bitok.xyz
Торрент скачать бесплатно Фильмы торрент скачать Содержанки (2020) WEB-DLRip [H.264 / 720p-LQ] (сезон 2, серии 1 из 8) (обновляемая) торрент скачать бесплатно


    Содержанки (2020) WEB-DLRip [H.264 / 720p-LQ] (сезон 2, серии 1 из 8) (обновляемая) торрент скачать бесплатно

    Дата: 31-01-2020, 05:00 | .torrent скачали: 0

    Содержанки (2020) WEB-DLRip [H.264 / 720p-LQ] (сезон 2, серии 1 из 8) (обновляемая)Производство: Россия/START STUDIO
    Жанр: Драма
    Режиссер: Дарья Жук

    Актеры
    Дарья Мороз, Софья Эрнст, Ольга Сутулова, Сергей Бурунов, Марина Зудина, Александра Ребенок, Владимир Мишуков, Александра Ревенко, Сабина Ахмедова, Ирина Старшенбаум и др.

    Описание

    В новом сезон любимого сериалае зрители узнают, получится ли у Лены и карьеристки Даши, приехавшей в Москву из Саратова, найти себя в мире больших денег и какую цену за эту новую жизнь им придётся заплатить. Не пожалеет ли Лена о том, что с лёгкостью разорвала рутинный, но стабильный брак и ушла к богатому, но что-то скрывающему олигарху? Получится ли у Даши открыть свою галерею и удержаться в Москве без помощи чиновника Игоря? Наконец, сможет ли бывший коллега Лены Макс раскрыть череду убийств, и замешан ли в них олигарх Ольховский?

    Возраст: 18+ (зрителям, достигшим 18 лет. запрещено для детей)
    Продолжительность: ~ 00: 49: 00 серия
    Качество видео: WEB-DLRip
    Видео: AVC/H.264, 1280x720 (16: 9), ~4500 Kbps
    Аудио: AC3, 2 ch, 192 Kbps
    Общее
    Уникальный идентификатор : 172318449129390969916827914139581285640 (0x81A3537C438D5C66BB1DE20B0DB40508)
    Полное имя : F: СЕРИАЛЫСОДЕРЖАНКИSoderzhanki.s02.2020.WEB-DL.(720p).Files-xSoderzhanki.s02e01.2020.WEB-DL.(1080p).Files-x.mkv
    Формат : Matroska
    Версия формата : Version 2
    Размер файла : 1, 58 Гбайт
    Продолжительность : 48 м. 35 с.
    Общий поток : 4646 Кбит/сек
    Дата кодирования : UTC 2020-01-29 22: 16: 00
    Программа кодирования : mkvmerge v8.3.0 (\'Over the Horizon\') 32bit
    Библиотека кодирования : libebml v1.3.1 + libmatroska v1.4.2
    Видео
    Идентификатор : 1
    Формат : AVC
    Формат/Информация : Advanced Video Codec
    Профиль формата : High@L4.1
    Настройки формата : CABAC/4 Ref Frames
    Параметр CABAC формата : Да
    Параметр RefFrames формата : 4 кадра
    Идентификатор кодека : V_MPEG4/ISO/AVC
    Продолжительность : 48 м. 35 с.
    Битрейт : 4500 Кбит/сек
    Ширина : 1280 пикселей
    Высота : 720 пикселей
    Соотношение сторон : 16: 9
    Режим частоты кадров : Постоянный
    Частота кадров : 25, 000 кадров/сек
    Цветовое пространство : YUV
    Субдискретизация насыщенности : 4: 2: 0
    Битовая глубина : 8 бит
    Тип развёртки : Прогрессивная
    Бит/(Пиксели*Кадры) : 0.195
    Размер потока : 1, 48 Гбайт (94%)
    Библиотека кодирования : x264 core 142 r2431+42 c69a006 tMod 8-bit@all X86_64
    Настройки программы : cabac=1/ref=4/deblock=1: 0: 0/analyse=0x3: 0x133/me=hex/subme=2/psy=1/fade_compensate=0.00/psy_rd=1.00: 0.00/mixed_ref=1/me_range=16/chroma_me=1/trellis=2/8x8dct=1/cqm=0/deadzone=21, 11/fast_pskip=0/chroma_qp_offset=0/threads=24/lookahead_threads=5/sliced_threads=0/nr=0/decimate=1/interlaced=0/bluray_compat=0/constrained_intra=0/fgo=0/bframes=2/b_pyramid=2/b_adapt=2/b_bias=0/direct=1/weightb=1/open_gop=0/weightp=2/keyint=240/keyint_min=24/scenecut=40/intra_refresh=0/rc=abr/mbtree=0/bitrate=4500/ratetol=1.0/qcomp=0.60/qpmin=0: 0: 0/qpmax=69: 69: 69/qpstep=4/ip_ratio=1.40/pb_ratio=1.30/aq=1: 1.00/aq-sensitivity=10.00/aq-factor=1.00: 1.00: 1.00/aq2=0/aq3=0
    Default : Да
    Forced : Нет
    Аудио
    Идентификатор : 2
    Формат : AC-3
    Формат/Информация : Audio Coding 3
    Коммерческое название : Dolby Digital
    Идентификатор кодека : A_AC3
    Продолжительность : 48 м. 35 с.
    Вид битрейта : Постоянный
    Битрейт : 192 Кбит/сек
    Каналы : 2 канала
    ChannelLayout : L R
    Частота : 48, 0 КГц
    Частота кадров : 31, 250 кадров/сек (1536 SPF)
    Битовая глубина : 16 бит
    Метод сжатия : С потерями
    Размер потока : 66, 7 Мбайт (4%)
    ServiceKind/String : Complete Main
    Default : Да
    Forced : Нет

    Скриншоты для ознакомления



    Все одноименные релизы в Клубе
    Время раздачи: 24/7 (до появления первых 3-5 скачавших)

    Онлайн видео Содержанки (2020) WEB-DLRip [H.264


    Содержанки (2020) WEB-DLRip [H.264/720p-LQ] (сезон 2, серии 1 из 8) (обновляемая)

    Содержанки (2020) WEB-DLRip [H.264 / 720p-LQ] (сезон 2, серии 1 из 8) (обновляемая) торрент скачать бесплатно
    Рейтинг →
     (голосов: 1, оценка 5/5, голосовать можно 1 раз )

    Другие торренты по теме:

  • Потерянное отражение: Исповедь содержанки (2017) WEB-DLRip
  • Содержанки (2019) WEB-DLRip (сезон 1, серии 1-2 из 8) (обновляемая)
  • Содержанки (2020) WEB-DLRip (сезон 2, серии 1 из 8) (обновляемая)
  • Содержанки (2020) WEB-DLRip [H.264] (сезон 2, серии 1 из 8) (обновляемая)


    • Комментарии (0):

      Информация

      Информация

        Посетители, находящиеся в группе Гости, не могут оставлять комментарии в данной новости.

        ↓ Меню




        ↓ Опрос

        Вы добавили сайт в закладки?
        Да
        Нет


        Популярное