.
Авторизация | Регистрация
bitok.xyz
Торрент скачать бесплатно Фильмы торрент скачать Содержанки (2020) WEB-DLRip (сезон 2, серии 1 из 8) (обновляемая) торрент скачать бесплатно


    Содержанки (2020) WEB-DLRip (сезон 2, серии 1 из 8) (обновляемая) торрент скачать бесплатно

    Дата: 31-01-2020, 05:00 | .torrent скачали: 2

    Содержанки (2020) WEB-DLRip (сезон 2, серии 1 из 8) (обновляемая)Производство: Россия/START STUDIO
    Жанр: Драма
    Режиссер: Дарья Жук

    Актеры
    Дарья Мороз, Софья Эрнст, Ольга Сутулова, Сергей Бурунов, Марина Зудина, Александра Ребенок, Владимир Мишуков, Александра Ревенко, Сабина Ахмедова, Ирина Старшенбаум и др.

    Описание

    В новом сезон любимого сериалае зрители узнают, получится ли у Лены и карьеристки Даши, приехавшей в Москву из Саратова, найти себя в мире больших денег и какую цену за эту новую жизнь им придётся заплатить. Не пожалеет ли Лена о том, что с лёгкостью разорвала рутинный, но стабильный брак и ушла к богатому, но что-то скрывающему олигарху? Получится ли у Даши открыть свою галерею и удержаться в Москве без помощи чиновника Игоря? Наконец, сможет ли бывший коллега Лены Макс раскрыть череду убийств, и замешан ли в них олигарх Ольховский?

    Возраст: 18+ (зрителям, достигшим 18 лет. запрещено для детей)
    Продолжительность: ~ 00: 49: 00 серия
    Качество видео: WEB-DLRip
    Видео: XviD, 720x400 (16: 9), ~1530 Kbps
    Аудио: AC3, 2 ch, 192 Kbps
    Общее
    Полное имя : F: СЕРИАЛЫСОДЕРЖАНКИSoderzhanki.S02.2020.WEB-DLRip.25KuzmichSoderzhanki.s02e01.WEB-DLRip.25Kuzmich.avi
    Формат : AVI
    Формат/Информация : Audio Video Interleave
    Размер файла : 600 Мбайт
    Продолжительность : 48 м. 26 с.
    Общий поток : 1732 Кбит/сек
    Программа кодирования : VirtualDubMod 1.5.10.3 |www.virtualdub-fr.org|| (build 2550/release)
    Библиотека кодирования : VirtualDubMod build 2550/release
    Видео
    Идентификатор : 0
    Формат : MPEG-4 Visual
    Профиль формата : Advanced Simple@L5
    Настройки формата : BVOP1
    Параметр BVOP формата : 1
    Параметр QPel формата : Нет
    Параметр GMC формата : Без точки перехода
    Параметр матрицы формата : Default (MPEG)
    Идентификатор кодека : XVID
    Идентификатор кодека/Подсказка : XviD
    Продолжительность : 48 м. 26 с.
    Битрейт : 1530 Кбит/сек
    Ширина : 720 пикселей
    Высота : 400 пикселей
    Соотношение сторон : 16: 9
    Частота кадров : 25, 000 кадров/сек
    Цветовое пространство : YUV
    Субдискретизация насыщенности : 4: 2: 0
    Битовая глубина : 8 бит
    Тип развёртки : Прогрессивная
    Метод сжатия : С потерями
    Бит/(Пиксели*Кадры) : 0.212
    Размер потока : 530 Мбайт (88%)
    Библиотека кодирования : XviD 73
    Аудио
    Идентификатор : 1
    Формат : AC-3
    Формат/Информация : Audio Coding 3
    Коммерческое название : Dolby Digital
    Идентификатор кодека : 2000
    Продолжительность : 48 м. 26 с.
    Вид битрейта : Постоянный
    Битрейт : 192 Кбит/сек
    Каналы : 2 канала
    ChannelLayout : L R
    Частота : 48, 0 КГц
    Частота кадров : 31, 250 кадров/сек (1536 SPF)
    Битовая глубина : 16 бит
    Метод сжатия : С потерями
    Размер потока : 66, 5 Мбайт (11%)
    Выравнивание : Разделение по промежуткам
    Продолжительность промежутка : 40 мс. (1, 00 видеокадр)
    Время предзагрузки промежутка : 500 мс.
    ServiceKind/String : Complete Main

    Скриншоты для ознакомления



    Все одноименные релизы в Клубе
    Время раздачи: 24/7 (до появления первых 3-5 скачавших)

    Онлайн видео Содержанки (2020) WEB


    Содержанки (2020) WEB-DLRip (сезон 2, серии 1 из 8) (обновляемая)

    Содержанки (2020) WEB-DLRip (сезон 2, серии 1 из 8) (обновляемая) торрент скачать бесплатно
    Рейтинг →
     (голосов: 1, оценка 4/5, голосовать можно 1 раз )

    Другие торренты по теме:

  • Потерянное отражение: Исповедь содержанки (2017) WEB-DLRip
  • Содержанки (2019) WEB-DLRip (сезон 1, серии 1-2 из 8) (обновляемая)
  • Содержанки (2020) WEB-DLRip [H.264 / 720p-LQ] (сезон 2, серии 1 из 8) (обновляемая)
  • Содержанки (2020) WEB-DLRip [H.264] (сезон 2, серии 1 из 8) (обновляемая)


    • Комментарии (0):

      Информация

      Информация

        Посетители, находящиеся в группе Гости, не могут оставлять комментарии в данной новости.

        ↓ Меню




        ↓ Опрос

        Вы добавили сайт в закладки?
        Да
        Нет


        Популярное