.
Авторизация | Регистрация
bitok.xyz
Торрент скачать бесплатно Фильмы торрент скачать Содержанки (2020) WEB-DL [H.264 / 1080p-LQ] (сезон 2, серии 1 из 8) (обновляемая) торрент скачать бесплатно


    Содержанки (2020) WEB-DL [H.264 / 1080p-LQ] (сезон 2, серии 1 из 8) (обновляемая) торрент скачать бесплатно

    Дата: 31-01-2020, 05:00 | .torrent скачали: 1

    Содержанки (2020) WEB-DL [H.264 / 1080p-LQ] (сезон 2, серии 1 из 8) (обновляемая)Производство: Россия/START STUDIO
    Жанр: Драма
    Режиссер: Дарья Жук

    Актеры
    Дарья Мороз, Софья Эрнст, Ольга Сутулова, Сергей Бурунов, Марина Зудина, Александра Ребенок, Владимир Мишуков, Александра Ревенко, Сабина Ахмедова, Ирина Старшенбаум и др.

    Описание

    В новом сезон любимого сериалае зрители узнают, получится ли у Лены и карьеристки Даши, приехавшей в Москву из Саратова, найти себя в мире больших денег и какую цену за эту новую жизнь им придётся заплатить. Не пожалеет ли Лена о том, что с лёгкостью разорвала рутинный, но стабильный брак и ушла к богатому, но что-то скрывающему олигарху? Получится ли у Даши открыть свою галерею и удержаться в Москве без помощи чиновника Игоря? Наконец, сможет ли бывший коллега Лены Макс раскрыть череду убийств, и замешан ли в них олигарх Ольховский?

    Возраст: 18+ (зрителям, достигшим 18 лет. запрещено для детей)
    Продолжительность: ~ 00: 49: 00 серия
    Качество видео: WEB-DL
    Видео: AVC/H.264, 1920x1080 (16: 9), ~6349 Kbps
    Аудио: AC3, 2 ch, 192 Kbps
    Общее
    Уникальный идентификатор : 251690580367803030619086727610731687119 (0xBD59D7B108625A3797FC40F0DE6D6CCF)
    Полное имя : F: СЕРИАЛЫСОДЕРЖАНКИSoderzhanki.s02.2020.WEB-DL.(1080p).GettySoderzhanki.s02e01.2020.WEB-DL.(1080p).Getty.mkv
    Формат : Matroska
    Версия формата : Version 4
    Размер файла : 2, 22 Гбайт
    Продолжительность : 48 м. 35 с.
    Общий поток : 6543 Кбит/сек
    Название фильма : Soderzhanki.s02e01.2020.WEB-DL.(1080p).Getty
    Дата кодирования : UTC 2020-01-29 21: 09: 29
    Программа кодирования : mkvmerge v7.8.0 (\'River Man\') 32bit built on Mar 27 2015 16: 18: 02
    Библиотека кодирования : libebml v1.3.1 + libmatroska v1.4.2
    Видео
    Идентификатор : 1
    Формат : AVC
    Формат/Информация : Advanced Video Codec
    Профиль формата : High@L4
    Настройки формата : CABAC/4 Ref Frames
    Параметр CABAC формата : Да
    Параметр RefFrames формата : 4 кадра
    Идентификатор кодека : V_MPEG4/ISO/AVC
    Продолжительность : 48 м. 35 с.
    Битрейт : 6349 Кбит/сек
    Ширина : 1920 пикселей
    Высота : 1080 пикселей
    Соотношение сторон : 16: 9
    Режим частоты кадров : Постоянный
    Частота кадров : 25, 000 кадров/сек
    Цветовое пространство : YUV
    Субдискретизация насыщенности : 4: 2: 0
    Битовая глубина : 8 бит
    Тип развёртки : Прогрессивная
    Бит/(Пиксели*Кадры) : 0.122
    Размер потока : 2, 16 Гбайт (97%)
    Default : Да
    Forced : Нет
    Цветовой диапазон : Limited
    Основные цвета : BT.709
    Характеристики трансфера : BT.709
    Коэффициенты матрицы : BT.709
    Аудио
    Идентификатор : 2
    Формат : AC-3
    Формат/Информация : Audio Coding 3
    Коммерческое название : Dolby Digital
    Идентификатор кодека : A_AC3
    Продолжительность : 48 м. 35 с.
    Вид битрейта : Постоянный
    Битрейт : 192 Кбит/сек
    Каналы : 2 канала
    ChannelLayout : L R
    Частота : 48, 0 КГц
    Частота кадров : 31, 250 кадров/сек (1536 SPF)
    Битовая глубина : 16 бит
    Метод сжатия : С потерями
    Размер потока : 66, 7 Мбайт (3%)
    ServiceKind/String : Complete Main
    Default : Да
    Forced : Нет

    Скриншоты для ознакомления



    Все одноименные релизы в Клубе
    Время раздачи: 24/7 (до появления первых 3-5 скачавших)

    Онлайн видео Содержанки (2020) WEB-DL [H.264


    Содержанки (2020) WEB-DL [H.264/1080p-LQ] (сезон 2, серии 1 из 8) (обновляемая)

    Содержанки (2020) WEB-DL [H.264 / 1080p-LQ] (сезон 2, серии 1 из 8) (обновляемая) торрент скачать бесплатно
    Рейтинг →
     (голосов: 1, оценка 3/5, голосовать можно 1 раз )

    Другие торренты по теме:

  • Потерянное отражение: Исповедь содержанки (2017) WEB-DL [H.264 / 1080p-LQ]
  • Содержанки (2019) WEB-DL [H.264.1080p-LQ] (сезон 1, серии 1-2 из 8) (обновляемая)


    • Комментарии (0):

      Информация

      Информация

        Посетители, находящиеся в группе Гости, не могут оставлять комментарии в данной новости.

        ↓ Меню




        ↓ Опрос

        Вы добавили сайт в закладки?
        Да
        Нет


        Популярное