.
Авторизация | Регистрация
bitok.xyz
Торрент скачать бесплатно Фильмы торрент скачать Открытое море / Alta Mar (2019) WEB-DLRip (сезон 2, серии 1-8 из 8) AMS [AD] торрент скачать бесплатно


    Открытое море / Alta Mar (2019) WEB-DLRip (сезон 2, серии 1-8 из 8) AMS [AD] торрент скачать бесплатно

    Дата: 31-01-2020, 05:00 | .torrent скачали: 1

    Открытое море / Alta Mar (2019) WEB-DLRip (сезон 2, серии 1-8 из 8) AMS [AD]Производство: Испания
    Жанр: драма, криминал, детектив
    Режиссер: Лино Эскалера, Карлос Седес

    Актеры
    Ивана Бакеро, Алехандра Ониэва, Элой Асорин, Чики Фернандес, Тамар Новас, Даниэль Лунд, Наталия Родригес, Лаура Пратс, Игнасио Монтес и др.

    Описание

    В 1940 году из Европы в Южную Америку отправляется трансатлантический лайнер, который везет счастливых людей, бегущих от войны в новый дивный мир. Среди пассажиров две сестры Каролина и Ева, а также офицер Николас Сала, оказавшийся не в том месте и не в то время.
    Через какое-то время на борту появляется труп неизвестного пассажира, которого не было в списке, более того его никто не может вспомнить. Начинается расследование, в ходе которого обнаруживаются скелеты как в каждой каюте, так и самого судна.

    Продолжительность: ~00: 45: 00 серия
    Качество видео: WEB-DLRip
    Перевод: Многоголосый профессиональный - AMS (Adiós Muchachos Studio)
    Реклама: присутствуют аудио вставки рекламы
    Видео: XviD, 720x368 (16: 9), ~1600 Kbps
    Аудио #1: AC3, 48, 0 kHz, 6 ch, 384 Kbps - русский
    Аудио #2: AC3, 48, 0 kHz, 6 ch, 384 Kbps - испанский
    General
    Complete name : /Alta.mar.High.Seas.S02E01.400p.WEB-DL.AMS.avi
    Format : AVI
    Format/Info : Audio Video Interleave
    File size : 654 MiB
    Duration : 38mn 26s
    Overall bit rate : 2 378 Kbps
    Movie name : High Seas (Alta Mar) 2x01 - MVO AMS
    Writing application : Lavf57.71.100
    Video
    ID : 0
    Format : MPEG-4 Visual
    Format profile : Advanced Simple@L5
    Format settings : BVOP2
    Format settings, BVOP : 2
    Format settings, QPel : No
    Format settings, GMC : No warppoints
    Format settings, Matrix : Default (MPEG)
    Codec ID : XVID
    Codec ID/Hint : XviD
    Duration : 38mn 26s
    Bit rate : 1 594 Kbps
    Width : 720 pixels
    Height : 368 pixels
    Display aspect ratio : 1.957
    Frame rate : 25.000 fps
    Color space : YUV
    Chroma subsampling : 4: 2: 0
    Bit depth : 8 bits
    Scan type : Progressive
    Compression mode : Lossy
    Bits/(Pixel*Frame) : 0.241
    Stream size : 438 MiB (67%)
    Title : High Seas (Alta Mar) 2x01 - MVO AMS
    Writing library : XviD 67
    Audio #1
    ID : 1
    Format : AC-3
    Format/Info : Audio Coding 3
    Commercial name : Dolby Digital
    Codec ID : 2000
    Duration : 38mn 26s
    Bit rate mode : Constant
    Bit rate : 384 Kbps
    Channel(s) : 6 channels
    Channel layout : L R C LFE Ls Rs
    Sampling rate : 48.0 KHz
    Frame rate : 31.250 fps (1536 SPF)
    Bit depth : 16 bits
    Compression mode : Lossy
    Stream size : 106 MiB (16%)
    Alignment : Aligned on interleaves
    Interleave, duration : 32 ms (0.80 video frame)
    Title : MVO AMS
    Service kind : Complete Main
    Audio #2
    ID : 2
    Format : AC-3
    Format/Info : Audio Coding 3
    Commercial name : Dolby Digital
    Codec ID : 2000
    Duration : 38mn 26s
    Bit rate mode : Constant
    Bit rate : 384 Kbps
    Channel(s) : 6 channels
    Channel layout : L R C LFE Ls Rs
    Sampling rate : 48.0 KHz
    Frame rate : 31.250 fps (1536 SPF)
    Bit depth : 16 bits
    Compression mode : Lossy
    Stream size : 106 MiB (16%)
    Alignment : Aligned on interleaves
    Interleave, duration : 32 ms (0.80 video frame)
    Title : Original
    Service kind : Complete Main

    Скриншоты для ознакомления



    Все одноименные релизы в Клубе
    Время раздачи: 24/7 (круглосуточно) (до появления первых 3-5 скачавших)

    Онлайн видео Открытое море


    Открытое море/Alta Mar (2019) WEB-DLRip (сезон 2, серии 1-8 из 8) AMS [AD]

    Открытое море / Alta Mar (2019) WEB-DLRip (сезон 2, серии 1-8 из 8) AMS [AD] торрент скачать бесплатно
    Рейтинг →
     (голосов: 1, оценка 3/5, голосовать можно 1 раз )

    Другие торренты по теме:

  • Наука 2.0. На пределе. Открытое море (2014) SATRip
  • Открытое море: Новые жертвы / The Reef (2010) BDRemux [H.264 / 1080p]
  • Открытое море / Niemand in de stad (Open Seas) (2018) DVDRip [MVO] [AD]
  • Открытое море / Alta Mar (2019) WEB-DLRip (сезон 1, серии 1-8 из 8) AMS [AD]
  • Открытое море / Alta Mar (2019) WEB-DLRip [H.264 / 1080p-LQ] (сезон 1, серии 1-8 из 8) AMS [AD]
  • Открытое море / Alta Mar (2019) WEB-DLRip [H.264 / 1080p-LQ] (сезон 2, серии 1-8 из 8) AMS [AD]
  • Открытое море / Alta Mar (2019) WEB-DLRip [H.264 / 720p-LQ] (сезон 2, серии 1-8 из 8) AMS [AD]


    • Комментарии (0):

      Информация

      Информация

        Посетители, находящиеся в группе Гости, не могут оставлять комментарии в данной новости.

        ↓ Меню




        ↓ Опрос

        Вы добавили сайт в закладки?
        Да
        Нет


        Популярное