.
Авторизация | Регистрация
bitok.xyz
Торрент скачать бесплатно Фильмы торрент скачать Гемини / Gemini Man (2019) BDRemux [H.264 / 1080p] торрент скачать бесплатно


    Гемини / Gemini Man (2019) BDRemux [H.264 / 1080p] торрент скачать бесплатно

    Дата: 1-02-2020, 05:00 | .torrent скачали: 0

    Гемини / Gemini Man (2019) BDRemux [H.264 / 1080p]Производство: Китай, США/Skydance Media, Jerry Bruckheimer Films, Fosun Group Forever Pictures
    Жанр: Фантастика, боевик, триллер, драма
    Режиссер: Энг Ли

    Актеры
    Уилл Смит, Мэри Элизабет Уинстэд, Клайв Оуэн, Бенедикт Вонг, Дуглас Ходж, Теодора Вулли, Ральф Браун, Линда Эмонд, Андреа Суч, Илья Волох

    Описание

    Генри Броган, первоклассный киллер, становится мишенью таинственного оперативника, который, кажется, знает каждый его шаг наперед…

    Возраст: 12+ (зрителям, достигшим 12 лет)
    Рейтинг MPAA: PG-13 (детям до 13 лет просмотр нежелателен)
    Дата мировой премьеры: 25 сентября 2019
    Дата российской премьеры: 10 октября 2019
    Цифровой релиз: 2 января 2020

    Релиз от: selezen
    Продолжительность: 01: 57: 00
    Качество видео: BDRemux
    Перевод: Дублированный (Лицензия BD CEE)
    Субтитры: Русские (Forced, full), английские (Full)
    Видео: AVC/H.264, 1920x1080, ~27, 1 Mbps
    Аудио 1: AC3, 6 ch, 640 Kbps - Русский
    Аудио 2: TrueHD, 8 ch, 4205 Kbps - Английский
    Аудио 3: AC3, 6 ch, 640 Kbps - Английский
    General
    Complete name : Gemini.Man.2019.Lic.BDREMUX.1080p.seleZen.mkv
    Format : Matroska
    Format version : Version 4
    File size : 26.7 GiB
    Duration : 1 h 57 min
    Overall bit rate mode : Variable
    Overall bit rate : 32.7 Mb/s
    Movie name : Gemini Man 2019 from селезень
    Encoded date : UTC 2020-01-31 22: 25: 24
    Writing application : mkvmerge v40.0.0 (\'Old Town Road + Pony\') 64-bit
    Writing library : libebml v1.3.9 + libmatroska v1.5.2
    Video
    ID : 1
    Format : AVC
    Format/Info : Advanced Video Codec
    Format profile : High@L4.1
    Format settings : CABAC/4 Ref Frames
    Format settings, CABAC : Yes
    Format settings, Reference : 4 frames
    Codec ID : V_MPEG4/ISO/AVC
    Duration : 1 h 57 min
    Bit rate mode : Variable
    Bit rate : 27.1 Mb/s
    Maximum bit rate : 30.2 Mb/s
    Width : 1 920 pixels
    Height : 1 080 pixels
    Display aspect ratio : 16: 9
    Frame rate mode : Constant
    Frame rate : 23.976 (24000/1001) FPS
    Color space : YUV
    Chroma subsampling : 4: 2: 0
    Bit depth : 8 bits
    Scan type : Progressive
    Bits/(Pixel*Frame) : 0.546
    Stream size : 22.2 GiB (83%)
    Language : English
    Default : Yes
    Forced : No
    Audio #1
    ID : 2
    Format : AC-3
    Format/Info : Audio Coding 3
    Commercial name : Dolby Digital
    Codec ID : A_AC3
    Duration : 1 h 57 min
    Bit rate mode : Constant
    Bit rate : 640 kb/s
    Channel(s) : 6 channels
    Channel layout : L R C LFE Ls Rs
    Sampling rate : 48.0 kHz
    Frame rate : 31.250 FPS (1536 SPF)
    Compression mode : Lossy
    Stream size : 536 MiB (2%)
    Title : Dub License
    Language : Russian
    Service kind : Complete Main
    Default : Yes
    Forced : Yes
    Audio #2
    ID : 3
    Format : MLP FBA 16-ch
    Format/Info : Meridian Lossless Packing FBA with 16-channel presentation
    Commercial name : Dolby TrueHD with Dolby Atmos
    Codec ID : A_TRUEHD
    Duration : 1 h 57 min
    Bit rate mode : Variable
    Bit rate : 4 205 kb/s
    Maximum bit rate : 7 944 kb/s
    Channel(s) : 8 channels
    Channel layout : L R C LFE Ls Rs Lb Rb
    Sampling rate : 48.0 kHz
    Frame rate : 1 200.000 FPS (40 SPF)
    Compression mode : Lossless
    Stream size : 3.44 GiB (13%)
    Title : Original
    Language : English
    Default : No
    Forced : No
    Number of dynamic objects : 11
    Bed channel count : 1 channel
    Bed channel configuration : LFE
    Audio #3
    ID : 4
    Format : AC-3
    Format/Info : Audio Coding 3
    Commercial name : Dolby Digital
    Codec ID : A_AC3
    Duration : 1 h 57 min
    Bit rate mode : Constant
    Bit rate : 640 kb/s
    Channel(s) : 6 channels
    Channel layout : L R C LFE Ls Rs
    Sampling rate : 48.0 kHz
    Frame rate : 31.250 FPS (1536 SPF)
    Compression mode : Lossy
    Stream size : 536 MiB (2%)
    Language : English
    Service kind : Complete Main
    Default : No
    Forced : No
    Text #1
    ID : 5
    Format : UTF-8
    Codec ID : S_TEXT/UTF8
    Codec ID/Info : UTF-8 Plain Text
    Duration : 1 h 55 min
    Bit rate : 0 b/s
    Count of elements : 16
    Stream size : 581 Bytes (0%)
    Title : Forced
    Language : Russian
    Default : Yes
    Forced : Yes
    Text #2
    ID : 6
    Format : UTF-8
    Codec ID : S_TEXT/UTF8
    Codec ID/Info : UTF-8 Plain Text
    Duration : 1 h 55 min
    Bit rate : 69 b/s
    Count of elements : 1336
    Stream size : 59.1 KiB (0%)
    Title : Full
    Language : Russian
    Default : No
    Forced : No
    Text #3
    ID : 7
    Format : UTF-8
    Codec ID : S_TEXT/UTF8
    Codec ID/Info : UTF-8 Plain Text
    Duration : 1 h 45 min
    Bit rate : 49 b/s
    Count of elements : 1356
    Stream size : 38.5 KiB (0%)
    Title : Full
    Language : English
    Default : No
    Forced : No
    Menu
    00: 00: 00.000 : en: Глава 01
    00: 07: 21.650 : en: Глава 02
    00: 15: 31.681 : en: Глава 03
    00: 18: 13.134 : en: Глава 04
    00: 24: 39.520 : en: Глава 05
    00: 30: 59.441 : en: Глава 06
    00: 34: 09.464 : en: Глава 07
    00: 42: 40.308 : en: Глава 08
    00: 50: 24.897 : en: Глава 09
    00: 56: 45.819 : en: Глава 10
    01: 03: 30.306 : en: Глава 11
    01: 08: 13.172 : en: Глава 12
    01: 16: 45.935 : en: Глава 13
    01: 24: 43.996 : en: Глава 14
    01: 30: 04.733 : en: Глава 15
    01: 34: 00.927 : en: Глава 16
    01: 42: 14.462 : en: Глава 17
    01: 47: 07.588 : en: Глава 18

    Скриншоты для ознакомления



    Все одноименные релизы в Клубе Время раздачи: 24/7 (мультитрекер)

    Онлайн видео Гемини


    Гемини/Gemini Man (2019) BDRemux [H.264/1080p]

    Гемини / Gemini Man (2019) BDRemux [H.264 / 1080p] торрент скачать бесплатно
    Рейтинг →
     (голосов: 1, оценка 5/5, голосовать можно 1 раз )

    Другие торренты по теме:

  • Гемини / Gemini Man (2019) CAMRip [MVO] [AD]
  • Гемини / Gemini Man (2019) CAMRip [H.264 / 720p-LQ] [MVO] [AD]
  • Гемини / Gemini Man (2019) WEBRip [H.264 / 1080p-LQ] [Line, AD]
  • Гемини / Gemini Man (2019) WEBRip [UKR] [Line] [PR]
  • Гемини / Gemini Man (2019) WEBRip [H.264 / 1080p-LQ] [UKR, EN / ENG Sub] [Line]
  • Гемини / Gemini Man (2019) WEB-DLRip [H.264]
  • Гемини / Gemini Man (2019) WEB-DLRip
  • Гемини / Gemini Man (2019) WEB-DL [H.264 / 1080p-LQ]


    • Комментарии (0):

      Информация

      Информация

        Посетители, находящиеся в группе Гости, не могут оставлять комментарии в данной новости.

        ↓ Меню




        ↓ Опрос

        Вы добавили сайт в закладки?
        Да
        Нет


        Популярное