.
Авторизация | Регистрация
bitok.xyz
Торрент скачать бесплатно Фильмы торрент скачать Малыш Джо / Little Joe (2019) WEB-DL [H.264 / 1080p] торрент скачать бесплатно


    Малыш Джо / Little Joe (2019) WEB-DL [H.264 / 1080p] торрент скачать бесплатно

    Дата: 1-02-2020, 05:00 | .torrent скачали: 0

    Малыш Джо / Little Joe (2019) WEB-DL [H.264 / 1080p]Производство: Великобритания, Австрия, Германия
    Жанр: Фантастика, драма
    Режиссер: Джессика Хауснер

    Актеры
    Эмили Бичем, Бен Уишоу, Керри Фокс, Кит Коннор, Феникс Броссар, Лиэнн Бест, Эндрю Раджан, Дэвид Уилмот, Горан Костич, Яна Янежич

    Описание

    Мать-одиночка Элис, сотрудница отдела по выведению новых видов растений, создаёт необычный цветок - если за ним правильно ухаживать, он делает своего владельца счастливым. Но всё не так просто, и оказывается, что за счастье, даже сиюминутное, придётся заплатить, а цена может оказаться слишком высокой.

    Возраст: 16+ (зрителям, достигшим 16 лет)
    Дата мировой премьеры: 17 мая 2019
    Дата российской премьеры: 21 ноября 2019, Russian World Vision
    Релиз от: selezen
    Продолжительность: 01: 45: 17
    Качество видео: WEB-DL (AMAZON )
    Перевод: Дублированный (iTunes)
    Субтитры: Русские (Full), английские (Full, SDH)
    Видео: AVC/H.264, 1920x1040, ~7600 Kbps
    Аудио 1: AC3, 6 ch, 384 Kbps | Русский
    Аудио 2: E-AC3, 6 ch, 640 Kbps | Английский
    General
    Complete name : Little.Joe.2019.AMZN.WEB-DL.1080p.seleZen.mkv
    Format : Matroska
    Format version : Version 4
    File size : 6.34 GiB
    Duration : 1 h 45 min
    Overall bit rate : 8 627 kb/s
    Movie name : Little Joe 2019 from селезень
    Encoded date : UTC 2020-01-31 20: 31: 00
    Writing application : mkvmerge v40.0.0 (\'Old Town Road + Pony\') 64-bit
    Writing library : libebml v1.3.9 + libmatroska v1.5.2
    Video
    ID : 1
    Format : AVC
    Format/Info : Advanced Video Codec
    Format profile : High@L4
    Format settings : CABAC/4 Ref Frames
    Format settings, CABAC : Yes
    Format settings, Reference : 4 frames
    Codec ID : V_MPEG4/ISO/AVC
    Duration : 1 h 45 min
    Bit rate mode : Constant
    Bit rate : 7 600 kb/s
    Nominal bit rate : 10 000 kb/s
    Width : 1 920 pixels
    Height : 1 040 pixels
    Display aspect ratio : 1.85: 1
    Frame rate mode : Constant
    Frame rate : 23.976 (24000/1001) FPS
    Color space : YUV
    Chroma subsampling : 4: 2: 0
    Bit depth : 8 bits
    Scan type : Progressive
    Bits/(Pixel*Frame) : 0.159
    Stream size : 5.59 GiB (88%)
    Language : English
    Default : Yes
    Forced : No
    Color range : Limited
    Color primaries : BT.709
    Transfer characteristics : BT.709
    Matrix coefficients : BT.709
    Audio #1
    ID : 2
    Format : AC-3
    Format/Info : Audio Coding 3
    Commercial name : Dolby Digital
    Codec ID : A_AC3
    Duration : 1 h 45 min
    Bit rate mode : Constant
    Bit rate : 384 kb/s
    Channel(s) : 6 channels
    Channel layout : L R C LFE Ls Rs
    Sampling rate : 48.0 kHz
    Frame rate : 31.250 FPS (1536 SPF)
    Compression mode : Lossy
    Stream size : 289 MiB (4%)
    Title : iTunes
    Language : Russian
    Service kind : Complete Main
    Default : Yes
    Forced : Yes
    Audio #2
    ID : 3
    Format : E-AC-3
    Format/Info : Enhanced AC-3
    Commercial name : Dolby Digital Plus
    Codec ID : A_EAC3
    Duration : 1 h 45 min
    Bit rate mode : Constant
    Bit rate : 640 kb/s
    Channel(s) : 6 channels
    Channel layout : L R C LFE Ls Rs
    Sampling rate : 48.0 kHz
    Frame rate : 31.250 FPS (1536 SPF)
    Compression mode : Lossy
    Stream size : 482 MiB (7%)
    Title : Original
    Language : English
    Service kind : Complete Main
    Default : No
    Forced : No
    Text #1
    ID : 4
    Format : UTF-8
    Codec ID : S_TEXT/UTF8
    Codec ID/Info : UTF-8 Plain Text
    Duration : 1 h 38 min
    Bit rate : 84 b/s
    Count of elements : 1191
    Stream size : 61.0 KiB (0%)
    Title : Full
    Language : Russian
    Default : No
    Forced : No
    Text #2
    ID : 5
    Format : UTF-8
    Codec ID : S_TEXT/UTF8
    Codec ID/Info : UTF-8 Plain Text
    Duration : 1 h 42 min
    Bit rate : 48 b/s
    Count of elements : 1222
    Stream size : 36.4 KiB (0%)
    Title : Full
    Language : English
    Default : No
    Forced : No
    Text #3
    ID : 6
    Format : UTF-8
    Codec ID : S_TEXT/UTF8
    Codec ID/Info : UTF-8 Plain Text
    Duration : 1 h 43 min
    Bit rate : 51 b/s
    Count of elements : 1343
    Stream size : 38.9 KiB (0%)
    Title : SDH
    Language : English
    Default : No
    Forced : No

    Скриншоты для ознакомления



    Все одноименные релизы в Клубе
    Время раздачи: 24/7 (мультитрекер)

    Онлайн видео Малыш Джо


    Малыш Джо/Little Joe (2019) WEB-DL [H.264/1080p]

    Малыш Джо / Little Joe (2019) WEB-DL [H.264 / 1080p] торрент скачать бесплатно
    Рейтинг →
     (голосов: 1, оценка 5/5, голосовать можно 1 раз )

    Другие торренты по теме:

  • Малыш / Little Boy (2015) HDRip [VO] скачать через торрент бесплатно
  • Малыш / Little Boy (2015) BDRip [H.264 / 1080p] [VO] скачать через торрент бесплатно
  • Малыш / Little Boy (2015) BDRip [H.264 / 720p]
  • Малыш / Little Boy (2015) BDRip
  • Малыш / Little Boy (2015) BDRip [H.264 / 1080p]
  • Малыш / Little Boy (2015) BDRemux [H.264 / 1080p]
  • Малыш / Little Boy (2015) BDRip
  • Малыш Вилли / Little Charley Bear (2011-2012) SATRip (1 сезон, 51 серия из 52) скачать через торрент бесплатно


    • Комментарии (0):

      Информация

      Информация

        Посетители, находящиеся в группе Гости, не могут оставлять комментарии в данной новости.

        ↓ Меню




        ↓ Опрос

        Вы добавили сайт в закладки?
        Да
        Нет


        Популярное