.
Авторизация | Регистрация
bitok.xyz
Торрент скачать бесплатно Фильмы торрент скачать Ford против Ferrari / Ford v Ferrari (2019) BDRip [H.264 / 1080p] [MVO] торрент скачать бесплатно


    Ford против Ferrari / Ford v Ferrari (2019) BDRip [H.264 / 1080p] [MVO] торрент скачать бесплатно

    Дата: 1-02-2020, 05:00 | .torrent скачали: 0

    Ford против Ferrari / Ford v Ferrari (2019) BDRip [H.264 / 1080p] [MVO]Производство: США, Франция, Chernin Entertainment, Twentieth Century Fo
    Жанр: Драма, биография, спорт
    Режиссер: Джеймс Мэнголд
    Продюсер: Dani Bernfeld, Питер Чернин, Anthony Dixon,

    Актеры
    Кристиан Бэйл, Мэтт Дэймон, Катрина Балф, Трэйси Леттс, Джон Бернтал, Ноа Джуп, Джош Лукас, Ремо Джироне, Рэй МакКиннон, Джей Джей Филд

    Описание

    Фильм рассказывает о взаимоотношениях американского автомобильного конструктора Кэрролла Шелби и отважного британского гонщика Кена Майлза, которые вместе бросили вызов корпорациям и собственным демонам, чтобы создать абсолютно новый спорткар, который смог конкурировать с Ferrari на чемпионате мира, прошедшем во Франции в середине 1960-х.

    Возраст: 16+ (зрителям, достигшим 16 лет)
    Рейтинг MPAA: PG-13 (детям до 13 лет просмотр нежелателен)
    Дата мировой премьеры: 30 августа 2019
    Дата российской премьеры: 14 ноября 2019, Двадцатый Век Фокс СНГ
    Продолжительность: 02: 32: 35
    Качество видео: BDRip
    Перевод: Многоголосый профессиональный, дублированный
    Субтитры: Русские (Forced, Full), Английские (Forced, SDH)
    Видео: AVC/H.264, 1920x808, ~8730 kbps
    Аудио 1 : AC3, 6 ch, 448 Kbps - Русский (MVO-HDRezka Studio)
    Аудио 2 : AC3, 2 ch, 192 Kbps - Украинский (Line)
    Аудио 3 : DTS ES, 6 ch, 1509 Kbps - Английский
    Общее
    Уникальный идентификатор : 202952374000587942986991049530714504424 (0x98AF349788A180A6A8179141B3F63CE8)
    Полное имя : C: Новая папка (2)Ford.v.Ferrari.2019.BDRip.1080p.mkv
    Формат : Matroska
    Версия формата : Version 4
    Размер файла : 11, 6 Гбайт
    Продолжительность : 2 ч. 32 м.
    Общий поток : 10, 9 Мбит/сек
    Дата кодирования : UTC 2020-01-30 06: 07: 35
    Программа кодирования : mkvmerge v7.1.0 (\'Good Love\') 64bit built on Jul 27 2014 13: 06: 55
    Библиотека кодирования : libebml v1.3.0 + libmatroska v1.4.1
    Видео
    Идентификатор : 1
    Формат : AVC
    Формат/Информация : Advanced Video Codec
    Профиль формата : High@L4.1
    Настройки формата : CABAC/5 Ref Frames
    Параметр CABAC формата : Да
    Параметр RefFrames формата : 5 кадров
    Идентификатор кодека : V_MPEG4/ISO/AVC
    Продолжительность : 2 ч. 32 м.
    Битрейт : 8730 Кбит/сек
    Ширина : 1920 пикселей
    Высота : 808 пикселей
    Соотношение сторон : 2, 40: 1
    Режим частоты кадров : Постоянный
    Частота кадров : 23, 976 (24000/1001) кадра/сек
    Цветовое пространство : YUV
    Субдискретизация насыщенности : 4: 2: 0
    Битовая глубина : 8 бит
    Тип развёртки : Прогрессивная
    Бит/(Пиксели*Кадры) : 0.235
    Размер потока : 9, 08 Гбайт (78%)
    Библиотека кодирования : x264 core 159 r2991 1771b55
    Настройки программы : cabac=1/ref=5/deblock=1: 0: 0/analyse=0x3: 0x113/me=umh/subme=8/psy=1/psy_rd=1.00: 0.00/mixed_ref=1/me_range=16/chroma_me=1/trellis=1/8x8dct=1/cqm=0/deadzone=21, 11/fast_pskip=1/chroma_qp_offset=-2/threads=16/lookahead_threads=2/sliced_threads=0/nr=0/decimate=1/interlaced=0/bluray_compat=0/constrained_intra=0/bframes=3/b_pyramid=2/b_adapt=2/b_bias=0/direct=3/weightb=1/open_gop=0/weightp=2/keyint=240/keyint_min=23/scenecut=40/intra_refresh=0/rc_lookahead=50/rc=2pass/mbtree=1/bitrate=8730/ratetol=1.0/qcomp=0.60/qpmin=0/qpmax=69/qpstep=4/cplxblur=20.0/qblur=0.5/ip_ratio=1.40/aq=1: 1.00
    Язык : English
    Default : Да
    Forced : Нет
    Аудио #1
    Идентификатор : 2
    Формат : AC-3
    Формат/Информация : Audio Coding 3
    Коммерческое название : Dolby Digital
    Идентификатор кодека : A_AC3
    Продолжительность : 2 ч. 32 м.
    Вид битрейта : Постоянный
    Битрейт : 448 Кбит/сек
    Каналы : 6 каналов
    ChannelLayout : L R C LFE Ls Rs
    Частота : 48, 0 КГц
    Частота кадров : 31, 250 кадров/сек (1536 SPF)
    Битовая глубина : 16 бит
    Метод сжатия : С потерями
    Размер потока : 489 Мбайт (4%)
    Заголовок : MVO | HDRezka Studio
    Язык : Russian
    ServiceKind/String : Complete Main
    Default : Да
    Forced : Нет
    Аудио #2
    Идентификатор : 3
    Формат : AC-3
    Формат/Информация : Audio Coding 3
    Коммерческое название : Dolby Digital
    Идентификатор кодека : A_AC3
    Продолжительность : 2 ч. 32 м.
    Вид битрейта : Постоянный
    Битрейт : 192 Кбит/сек
    Каналы : 2 канала
    ChannelLayout : L R
    Частота : 48, 0 КГц
    Частота кадров : 31, 250 кадров/сек (1536 SPF)
    Битовая глубина : 16 бит
    Метод сжатия : С потерями
    Размер потока : 210 Мбайт (2%)
    Заголовок : Line
    Язык : Ukrainian
    ServiceKind/String : Complete Main
    Default : Нет
    Forced : Нет
    Аудио #3
    Идентификатор : 4
    Формат : DTS ES
    Формат/Информация : Digital Theater Systems
    Коммерческое название : DTS-ES Matrix
    Идентификатор кодека : A_DTS
    Продолжительность : 2 ч. 32 м.
    Вид битрейта : Постоянный
    Битрейт : 1509 Кбит/сек
    Каналы : 6 каналов
    Channel(s)_Original : 7 каналов
    ChannelLayout : C L R Ls Rs Cb LFE
    Частота : 48, 0 КГц
    Частота кадров : 93, 750 кадра/сек (512 SPF)
    Битовая глубина : 24 бит
    Метод сжатия : С потерями
    Размер потока : 1, 61 Гбайт (14%)
    Язык : English
    Default : Нет
    Forced : Нет
    Текст #1
    Идентификатор : 5
    Формат : UTF-8
    Идентификатор кодека : S_TEXT/UTF8
    Идентификатор кодека/Информация : UTF-8 Plain Text
    Заголовок : Forced
    Язык : Russian
    Default : Да
    Forced : Нет
    Текст #2
    Идентификатор : 6
    Формат : UTF-8
    Идентификатор кодека : S_TEXT/UTF8
    Идентификатор кодека/Информация : UTF-8 Plain Text
    Заголовок : Full
    Язык : Russian
    Default : Нет
    Forced : Нет
    Текст #3
    Идентификатор : 7
    Формат : UTF-8
    Идентификатор кодека : S_TEXT/UTF8
    Идентификатор кодека/Информация : UTF-8 Plain Text
    Заголовок : Forced
    Язык : English
    Default : Нет
    Forced : Нет
    Текст #4
    Идентификатор : 8
    Формат : UTF-8
    Идентификатор кодека : S_TEXT/UTF8
    Идентификатор кодека/Информация : UTF-8 Plain Text
    Заголовок : SDH
    Язык : English
    Default : Нет
    Forced : Нет
    Меню
    00: 00: 00.000 : : Chapter 01
    00: 04: 45.619 : : Chapter 02
    00: 07: 32.535 : : Chapter 03
    00: 10: 02.811 : : Chapter 04
    00: 15: 39.313 : : Chapter 05
    00: 20: 15.172 : : Chapter 06
    00: 21: 39.798 : : Chapter 07
    00: 26: 00.893 : : Chapter 08
    00: 31: 57.874 : : Chapter 09
    00: 34: 09.756 : : Chapter 10
    00: 39: 13.268 : : Chapter 11
    00: 42: 06.899 : : Chapter 12
    00: 45: 57.004 : : Chapter 13
    00: 48: 38.666 : : Chapter 14
    00: 51: 22.079 : : Chapter 15
    00: 55: 03.675 : : Chapter 16
    00: 57: 50.801 : : Chapter 17
    01: 00: 27.040 : : Chapter 18
    01: 06: 33.489 : : Chapter 19
    01: 11: 59.815 : : Chapter 20
    01: 16: 13.778 : : Chapter 21
    01: 19: 30.516 : : Chapter 22
    01: 24: 18.762 : : Chapter 23
    01: 29: 24.985 : : Chapter 24
    01: 33: 16.174 : : Chapter 25
    01: 38: 11.302 : : Chapter 26
    01: 40: 57.468 : : Chapter 27
    01: 43: 23.322 : : Chapter 28
    01: 45: 49.218 : : Chapter 29
    01: 50: 38.966 : : Chapter 30
    01: 53: 38.353 : : Chapter 31
    01: 57: 47.602 : : Chapter 32
    02: 00: 16.668 : : Chapter 33
    02: 05: 22.890 : : Chapter 34
    02: 09: 18.376 : : Chapter 35
    02: 12: 01.497 : : Chapter 36
    02: 15: 26.410 : : Chapter 37
    02: 18: 23.128 : : Chapter 38
    02: 20: 46.438 : : Chapter 39
    02: 26: 27.612 : : Chapter 40

    Скриншоты для ознакомления



    Все одноименные релизы в Клубе
    Время раздачи: 24/7 (круглосуточно) (до появления первых 3-5 скачавших)

    Онлайн видео Ford против Ferrari


    Ford против Ferrari/Ford v Ferrari (2019) BDRip [H.264/1080p] [MVO]

    Ford против Ferrari / Ford v Ferrari (2019) BDRip [H.264 / 1080p] [MVO] торрент скачать бесплатно
    Рейтинг →
     (голосов: 1, оценка 4/5, голосовать можно 1 раз )

    Другие торренты по теме:

  • Ford против Ferrari / Ford v Ferrari (2019) WEBRip [Line, AD]
  • Ford против Ferrari / Ford v Ferrari (2019) WEBRip [H.264 / 1080p-LQ] [Line, AD]
  • Ford против Ferrari / Ford v Ferrari (2019) WEBRip [H.264] [Line, AD]
  • Ford против Ferrari / Ford v Ferrari (2019) WEBRip [H.264 / 720p-LQ] [Line, AD]
  • Ford против Ferrari / Ford v Ferrari (2019) WEBRip [EN / RU, EN Sub]
  • Ford против Ferrari / Ford v Ferrari (2019) WEBRip [UKR] [Line]
  • Ford против Ferrari / Ford v Ferrari (2019) WEBRip [H.264] [UKR] [Line]
  • Ford против Ferrari / Ford v Ferrari (2019) WEBRip [H.264] [EN / RU, EN Sub]


    • Комментарии (0):

      Информация

      Информация

        Посетители, находящиеся в группе Гости, не могут оставлять комментарии в данной новости.

        ↓ Меню




        ↓ Опрос

        Вы добавили сайт в закладки?
        Да
        Нет


        Популярное