.
Авторизация | Регистрация
bitok.xyz
Торрент скачать бесплатно Фильмы торрент скачать Хороший лжец / The Good Liar (2019) BDRip [H.264 / 1080p] [PR] торрент скачать бесплатно


    Хороший лжец / The Good Liar (2019) BDRip [H.264 / 1080p] [PR] торрент скачать бесплатно

    Дата: 1-02-2020, 05:00 | .torrent скачали: 0

    Хороший лжец / The Good Liar (2019) BDRip [H.264 / 1080p] [PR]Производство: Великобритания, США, Германия, BRON Studios, Creative Wealth Media Finance, New Line Cinema
    Жанр: Драма, детектив
    Режиссер: Билл Кондон
    Продюсер: Билл Кондон, Грег Йолен, Джейсон Клот,

    Актеры
    Хелен Миррен, Иэн МакКеллен, Рассел Тови, Джим Картер, Марк Льюис Джонс, Лори Дэвидсон, Фил Данстер, Лусиан Мсамати, Йоуханнес Хёйкьюр Йоуханнессон, Тунджи Касим, Спайк Уайт, Стелла Стокер, Дэниэл Беттс, Нелл Уильямс, Селин Бакенс

    Описание

    Профессиональный мошенник Рой Кортни едва верит своей удаче, когда знакомится в сети с богатой вдовой Бетти Маклиш. Очаровав вдову и получив доступ ко всем ее ресурсам, Рой ловит себя на том, что она ему небезразлична.

    Возраст: 18+ (зрителям, достигшим 18 лет. запрещено для детей)
    Рейтинг MPAA: R (лицам до 17 лет обязательно присутствие взрослого)
    Дата мировой премьеры: 8 ноября 2019
    Дата российской премьеры: 14 ноября 2019, Каро-Премьер
    Релиз от: ELEKTRI4KA
    Продолжительность: 01: 49: 37
    Качество видео: BDRip
    Перевод: Дублированный (iTunes)
    Субтитры: Русские (Full), английские, украинские
    Видео: AVC/H.264, 1920x804, ~17, 0 Mbps
    Аудио #1: AC3, 6 ch, 384 kbps - Русский
    Аудио #2: AC3, 2 ch, 192 kbps -Украинский
    Аудио #3: DTS, 6 ch, 1509 kbps - Английский
    Общее
    Уникальный идентификатор : 223208788555996557528686199840331749613 (0xA7EC72EFE5A87750864EF5DB7C4758ED)
    Полное имя : F: Мои Фильмы BT.BASHTEL.RUHoroshiy.lzhets.2019.BDRip.1080p.ELEKTRI4KA.UNIONGANG.mkv
    Формат : Matroska
    Версия формата : Version 4
    Размер файла : 14, 6 Гбайт
    Продолжительность : 1 ч. 49 м.
    Общий поток : 19, 1 Мбит/сек
    Дата кодирования : UTC 2020-01-30 20: 05: 20
    Программа кодирования : mkvmerge v8.3.0 (\'Over the Horizon\') 64bit
    Библиотека кодирования : libebml v1.3.1 + libmatroska v1.4.2
    Видео
    Идентификатор : 1
    Формат : AVC
    Формат/Информация : Advanced Video Codec
    Профиль формата : High@L4.1
    Настройки формата : CABAC/5 Ref Frames
    Параметр CABAC формата : Да
    Параметр RefFrames формата : 5 кадров
    Идентификатор кодека : V_MPEG4/ISO/AVC
    Продолжительность : 1 ч. 49 м.
    Битрейт : 17, 0 Мбит/сек
    Ширина : 1920 пикселей
    Высота : 804 пикселя
    Соотношение сторон : 2, 40: 1
    Режим частоты кадров : Постоянный
    Частота кадров : 23, 976 (24000/1001) кадра/сек
    Цветовое пространство : YUV
    Субдискретизация насыщенности : 4: 2: 0
    Битовая глубина : 8 бит
    Тип развёртки : Прогрессивная
    Бит/(Пиксели*Кадры) : 0.459
    Размер потока : 13, 0 Гбайт (89%)
    Библиотека кодирования : x264 core 159 r2991+49 ~ Encoded by Mocunaman in Portugal
    Настройки программы : cabac=1/ref=5/deblock=1: -3: -3/analyse=0x3: 0x133/me=umh/subme=10/psy=1/fade_compensate=0.00/psy_rd=1.00: 0.00/mixed_ref=1/me_range=32/chroma_me=1/trellis=2/8x8dct=1/cqm=0/deadzone=21, 11/fast_pskip=0/chroma_qp_offset=-2/threads=25/lookahead_threads=6/sliced_threads=0/nr=0/decimate=0/interlaced=0/bluray_compat=0/constrained_intra=0/fgo=0/bframes=12/b_pyramid=2/b_adapt=2/b_bias=0/direct=3/weightb=1/open_gop=0/weightp=2/keyint=250/keyint_min=23/scenecut=40/intra_refresh=0/rc=2pass/mbtree=0/bitrate=17000/ratetol=1.0/qcomp=0.85/qpmin=0: 0: 0/qpmax=69: 69: 69/qpstep=4/cplxblur=20.0/qblur=0.5/ip_ratio=1.30/pb_ratio=1.20/aq=3: 0.60/aq-sensitivity=10.00/aq-factor=1.00: 1.00: 1.00/aq2=0/aq3=0/zones=24, 2784, b=1.3/10945, 15337, b=1.5/20929, 21939, b=1.5/38859, 39331, b=1.5/53323, 54312, b=1.5/114936, 116424, b=1.5
    Язык : English
    Default : Да
    Forced : Нет
    Цветовой диапазон : Limited
    Коэффициенты матрицы : BT.709
    Аудио #1
    Идентификатор : 2
    Формат : AC-3
    Формат/Информация : Audio Coding 3
    Коммерческое название : Dolby Digital
    Идентификатор кодека : A_AC3
    Продолжительность : 1 ч. 49 м.
    Вид битрейта : Постоянный
    Битрейт : 384 Кбит/сек
    Каналы : 6 каналов
    ChannelLayout : L R C LFE Ls Rs
    Частота : 48, 0 КГц
    Частота кадров : 31, 250 кадров/сек (1536 SPF)
    Битовая глубина : 16 бит
    Метод сжатия : С потерями
    Размер потока : 301 Мбайт (2%)
    Язык : Russian
    ServiceKind/String : Complete Main
    Default : Да
    Forced : Нет
    Аудио #2
    Идентификатор : 3
    Формат : AC-3
    Формат/Информация : Audio Coding 3
    Коммерческое название : Dolby Digital
    Идентификатор кодека : A_AC3
    Продолжительность : 1 ч. 49 м.
    Вид битрейта : Постоянный
    Битрейт : 192 Кбит/сек
    Каналы : 2 канала
    ChannelLayout : L R
    Частота : 48, 0 КГц
    Частота кадров : 31, 250 кадров/сек (1536 SPF)
    Битовая глубина : 16 бит
    Метод сжатия : С потерями
    Размер потока : 151 Мбайт (1%)
    Язык : Ukrainian
    ServiceKind/String : Complete Main
    Default : Нет
    Forced : Нет
    Аудио #3
    Идентификатор : 4
    Формат : DTS
    Формат/Информация : Digital Theater Systems
    Идентификатор кодека : A_DTS
    Продолжительность : 1 ч. 49 м.
    Вид битрейта : Постоянный
    Битрейт : 1509 Кбит/сек
    Каналы : 6 каналов
    ChannelLayout : C L R Ls Rs LFE
    Частота : 48, 0 КГц
    Частота кадров : 93, 750 кадра/сек (512 SPF)
    Битовая глубина : 16 бит
    Метод сжатия : С потерями
    Размер потока : 1, 16 Гбайт (8%)
    Заголовок : DTS 5.1
    Язык : English
    Default : Нет
    Forced : Нет
    Текст #1
    Идентификатор : 5
    Формат : UTF-8
    Идентификатор кодека : S_TEXT/UTF8
    Идентификатор кодека/Информация : UTF-8 Plain Text
    Продолжительность : 1 ч. 48 м.
    Битрейт : 89 бит/сек
    ElementCount : 1200
    Размер потока : 70, 7 Кбайт (0%)
    Язык : Russian
    Default : Да
    Forced : Нет
    Текст #2
    Идентификатор : 6
    Формат : UTF-8
    Идентификатор кодека : S_TEXT/UTF8
    Идентификатор кодека/Информация : UTF-8 Plain Text
    Продолжительность : 1 ч. 48 м.
    Битрейт : 4 бит/сек
    ElementCount : 82
    Размер потока : 3, 33 Кбайт (0%)
    Язык : Ukrainian
    Default : Нет
    Forced : Нет
    Текст #3
    Идентификатор : 7
    Формат : PGS
    Режим смешивания : zlib
    Идентификатор кодека : S_HDMV/PGS
    Идентификатор кодека/Информация : Picture based subtitle format used on BDs/HD-DVDs
    Продолжительность : 1 ч. 43 м.
    Битрейт : 11, 2 Кбит/сек
    ElementCount : 3088
    Размер потока : 8, 32 Мбайт (0%)
    Заголовок : SDH
    Язык : English
    Default : Нет
    Forced : Нет
    Меню
    00: 00: 00.000 : en: Chapter 01
    00: 07: 26.029 : en: Chapter 02
    00: 17: 30.091 : en: Chapter 03
    00: 26: 54.112 : en: Chapter 04
    00: 34: 31.653 : en: Chapter 05
    00: 43: 15.843 : en: Chapter 06
    00: 52: 14.340 : en: Chapter 07
    01: 00: 50.772 : en: Chapter 08
    01: 08: 18.177 : en: Chapter 09
    01: 17: 54.712 : en: Chapter 10
    01: 27: 05.720 : en: Chapter 11
    01: 36: 41.838 : en: Chapter 12
    01: 45: 10.179 : en: Chapter 13

    Скриншоты для ознакомления



    Все одноименные релизы в Клубе
    Время раздачи: 24/7 (круглосуточно) (до появления первых 3-5 скачавших)

    Онлайн видео Хороший лжец


    Хороший лжец/The Good Liar (2019) BDRip [H.264/1080p] [PR]

    Хороший лжец / The Good Liar (2019) BDRip [H.264 / 1080p] [PR] торрент скачать бесплатно
    Рейтинг →
     (голосов: 1, оценка 5/5, голосовать можно 1 раз )

    Другие торренты по теме:

  • Хороший лжец / The Good Liar (2019) HDRip [AVO]
  • Хороший лжец / The Good Liar (2019) BDRip [H.264 / 1080p] [AVO] [PR]
  • Хороший лжец / The Good Liar (2019) BDRip [H.265 / 720p] [10-bit] [PR]
  • Хороший лжец / The Good Liar (2019) BDRip [H.265] [10-bit]
  • Хороший лжец / The Good Liar (2019) BDRip [H.264]
  • Хороший лжец / The Good Liar (2019) BDRemux [H.264 / 1080p]
  • Хороший лжец / The Good Liar (2019) BDRip [H.264 / 1080p]
  • Хороший лжец / The Good Liar (2019) BDRip [H.264 / 720p]


    • Комментарии (0):

      Информация

      Информация

        Посетители, находящиеся в группе Гости, не могут оставлять комментарии в данной новости.

        ↓ Меню




        ↓ Опрос

        Вы добавили сайт в закладки?
        Да
        Нет


        Популярное