.
Авторизация | Регистрация
bitok.xyz
Торрент скачать бесплатно Фильмы торрент скачать Идеальный пациент / The Perfect Patient (2019) WEB-DLRip [H.264 / 720p-LQ] [10 bit] [DUB] торрент скачать бесплатно


    Идеальный пациент / The Perfect Patient (2019) WEB-DLRip [H.264 / 720p-LQ] [10 bit] [DUB] торрент скачать бесплатно

    Дата: 1-02-2020, 05:00 | .torrent скачали: 0

    Идеальный пациент / The Perfect Patient (2019) WEB-DLRip [H.264 / 720p-LQ] [10 bit] [DUB]Производство: Швеция/Brain Academy, Film i Väst, Nordisk Film
    Жанр: Триллер
    Режиссер: Микаэль Хофстрём

    Актеры
    Йонас Карлссон, Давид Денсик, Альба Аугуст, Сюзанн Рейтер, Линда Ульвеус, Кристофер Вагелин, Това Магнуссон-Норлинг, Даг Малмберг, Магнус Роосманн, Бьёрн Бенгтссон

    Описание

    Фильм основан на реальных событиях, вызвавших большой общественный резонанс в девяностых годах прошлого века в Швеции... Его изощренному уму позавидовал бы сам Ганнибал Лектер. Десятки жертв по всей стране и никаких улик. Единственный свидетель - он сам, сдавшийся на милость правосудия. Что это, муки совести или очередной ход в его чудовищной игре?

    Возраст: 18+ (зрителям, достигшим 18 лет. запрещено для детей)
    Дата мировой премьеры: 20.09.2019
    Дата российской премьеры: 14.11.2019
    Продолжительность: 02: 11: 25
    Качество видео: WEB-DLRip
    Перевод: Дублированный (iTunes)
    Субтитры: Финские
    Видео: AVC/H.264, 1280x480, ~2000 Kbps
    Аудио: AC3, 6 ch, 384 Kbps - Русский
    General
    Unique ID : 211201710970916729551388159140456190954 (0x9EE3F84E697267DBDAC7AF95651253EA)
    Complete name : /media/win/TORRENT/UPLOAD_TORRENTS/ugea.L.bHbIu_naIIueHm_2019_WEBDLRip_H264_H10P_720p.mkv
    Format : Matroska
    Format version : Version 4
    File size : 2.19 GiB
    Duration : 2 h 11 min
    Overall bit rate : 2 381 kb/s
    Movie name : ugea.L.bHbIu_naIIueHm_2019_WEBDLRip_H264_H10P_720p
    Encoded date : UTC 2020-01-31 12: 15: 42
    Writing application : mkvmerge v42.0.0 (\'Overtime\') 64-bit
    Writing library : libebml v1.3.10 + libmatroska v1.5.2/Lavf58.29.100
    Video
    ID : 1
    Format : AVC
    Format/Info : Advanced Video Codec
    Format profile : High 10@L4
    Format settings : CABAC/6 Ref Frames
    Format settings, CABAC : Yes
    Format settings, Reference frames : 6 frames
    Codec ID : V_MPEG4/ISO/AVC
    Duration : 2 h 11 min
    Bit rate : 2 000 kb/s
    Width : 1 280 pixels
    Height : 480 pixels
    Display aspect ratio : 2.667
    Frame rate mode : Constant
    Frame rate : 24.000 FPS
    Color space : YUV
    Chroma subsampling : 4: 2: 0
    Bit depth : 10 bits
    Scan type : Progressive
    Bits/(Pixel*Frame) : 0.136
    Stream size : 1.83 GiB (84%)
    Writing library : x264 core 159 r2991 1771b55
    Encoding settings : cabac=1/ref=6/deblock=1: 0: 0/analyse=0x3: 0x113/me=umh/subme=9/psy=1/psy_rd=1, 00: 0, 00/mixed_ref=1/me_range=24/chroma_me=1/trellis=1/8x8dct=1/cqm=0/deadzone=21, 11/fast_pskip=1/chroma_qp_offset=-2/threads=15/lookahead_threads=1/sliced_threads=0/nr=0/decimate=1/interlaced=0/bluray_compat=0/constrained_intra=0/bframes=6/b_pyramid=2/b_adapt=2/b_bias=0/direct=1/weightb=1/open_gop=0/weightp=2/keyint=240/keyint_min=24/scenecut=40/intra_refresh=0/rc_lookahead=40/rc=2pass/mbtree=1/bitrate=2000/ratetol=1, 0/qcomp=0, 60/qpmin=0/qpmax=81/qpstep=4/cplxblur=20, 0/qblur=0, 5/vbv_maxrate=60000/vbv_bufsize=75000/nal_hrd=none/filler=0/ip_ratio=1, 40/aq=1: 1, 00
    Default : Yes
    Forced : No
    Color range : Limited
    Color primaries : BT.709
    Transfer characteristics : BT.709
    Matrix coefficients : BT.709
    Audio
    ID : 2
    Format : AC-3
    Format/Info : Audio Coding 3
    Commercial name : Dolby Digital
    Codec ID : A_AC3
    Duration : 2 h 11 min
    Bit rate mode : Constant
    Bit rate : 384 kb/s
    Channel(s) : 6 channels
    Channel layout : L R C LFE Ls Rs
    Sampling rate : 48.0 kHz
    Frame rate : 31.250 FPS (1536 SPF)
    Compression mode : Lossy
    Stream size : 361 MiB (16%)
    Title : Russian Dub iTunes
    Language : Russian
    Service kind : Complete Main
    Default : Yes
    Forced : No
    Text
    ID : 3
    Format : UTF-8
    Codec ID : S_TEXT/UTF8
    Codec ID/Info : UTF-8 Plain Text
    Duration : 2 h 5 min
    Bit rate : 52 b/s
    Count of elements : 1230
    Stream size : 47.8 KiB (0%)
    Title : FIN Subtitles
    Language : Finnish
    Default : Yes
    Forced : No
    Menu
    00: 00: 00.000 : : ذ“ذذ°ذ²ذ° 1
    00: 03: 56.042 : : ذ“ذذ°ذ²ذ° 2
    00: 09: 23.125 : : ذ“ذذ°ذ²ذ° 3
    00: 18: 19.250 : : ذ“ذذ°ذ²ذ° 4
    00: 27: 39.292 : : ذ“ذذ°ذ²ذ° 5
    00: 36: 00.833 : : ذ“ذذ°ذ²ذ° 6
    00: 45: 05.458 : : ذ“ذذ°ذ²ذ° 7
    00: 51: 03.333 : : ذ“ذذ°ذ²ذ° 8
    00: 57: 57.125 : : ذ“ذذ°ذ²ذ° 9
    01: 03: 24.583 : : ذ“ذذ°ذ²ذ° 10
    01: 08: 52.708 : : ذ“ذذ°ذ²ذ° 11
    01: 21: 23.500 : : ذ“ذذ°ذ²ذ° 12
    01: 27: 46.750 : : ذ“ذذ°ذ²ذ° 13
    01: 37: 29.292 : : ذ“ذذ°ذ²ذ° 14
    01: 41: 41.875 : : ذ“ذذ°ذ²ذ° 15
    01: 50: 58.208 : : ذ“ذذ°ذ²ذ° 16
    01: 55: 22.792 : : ذ“ذذ°ذ²ذ° 17
    02: 00: 59.500 : : ذ“ذذ°ذ²ذ° 18


    Онлайн видео Идеальный пациент


    Идеальный пациент/The Perfect Patient (2019) WEB-DLRip [H.264/720p-LQ] [10 bit] [DUB]

    Идеальный пациент / The Perfect Patient (2019) WEB-DLRip [H.264 / 720p-LQ] [10 bit] [DUB] торрент скачать бесплатно
    Рейтинг →
     (голосов: 1, оценка 3/5, голосовать можно 1 раз )

    Другие торренты по теме:

  • Идеальный пациент / The Perfect Patient (2019) WEB-DL [H.264 / 720p-LQ]
  • Идеальный пациент / The Perfect Patient (2019) WEB-DL [H.264 / 1080p-LQ]
  • Идеальный пациент / The Perfect Patient (2019) WEB-DL [1080p] ATV
  • Идеальный пациент / The Perfect Patient (2019) WEB-DL [720p] ATV
  • Идеальный пациент / The Perfect Patient (2019) WEB-DLRip
  • Идеальный пациент / The Perfect Patient (2019) WEB-DLRip [H.265] [10-bit]
  • Идеальный пациент / The Perfect Patient (2019) BDRip [H.264 / 1080p]
  • Идеальный пациент / The Perfect Patient (2019) BDRemux [H.264 / 1080p]


    • Комментарии (0):

      Информация

      Информация

        Посетители, находящиеся в группе Гости, не могут оставлять комментарии в данной новости.

        ↓ Меню




        ↓ Опрос

        Вы добавили сайт в закладки?
        Да
        Нет


        Популярное