.
Авторизация | Регистрация
bitok.xyz
Торрент скачать бесплатно Фильмы торрент скачать Хороший лжец / The Good Liar (2019) BDRip [H.265] [10-bit] торрент скачать бесплатно


    Хороший лжец / The Good Liar (2019) BDRip [H.265] [10-bit] торрент скачать бесплатно

    Дата: 1-02-2020, 05:00 | .torrent скачали: 0

    Хороший лжец / The Good Liar (2019) BDRip [H.265] [10-bit]Производство: Великобритания, США, Германия | Bron Studios, New Line Cinema
    Жанр: драма, детектив
    Режиссер: Билл Кондон

    Актеры
    Хелен Миррен, Иэн МакКеллен, Рассел Тови, Джим Картер, Марк Льюис Джонс, Лори Дэвидсон, Фил Данстер, Лусиан Мсамати, Йоуханнес Хёйкьюр Йоуханнессон, Тунджи Касим

    Описание

    Профессиональный мошенник Рой Кортни едва верит своей удаче, когда знакомится в сети с богатой вдовой Бетти Маклиш. Очаровав вдову и получив доступ ко всем ее ресурсам, Рой ловит себя на том, что она ему небезразлична.

    Возраст: 18+ (зрителям, достигшим 18 лет. запрещено для детей)
    Рейтинг MPAA: R (лицам до 17 лет обязательно присутствие взрослого)
    Дата мировой премьеры: 8 ноября 2019
    Дата российской премьеры: 14 ноября 2019, Каро-Премьер
    Цифровой релиз: 31 января 2020, Warner Bros.
    Продолжительность: 01: 49: 37
    Качество видео: BDRip
    Перевод: Дублированный (iTunes)
    Субтитры: Русские
    Видео: HEVC/H.265, 1024x430, 1955 Kbps
    Аудио 1: AC3, 2 ch, 160 Kbps | Русский
    Аудио 2: AC3, 2 ch, 160 Kbps | АнглийскийОбщее
    Уникальный идентификатор : 340022681050831769929416066782336909044 (0xFFCDFC7F82CDC77DDE2E67601B8BFEF4)
    Полное имя : The.Good.Liar.2019.BDRip.HEVC.mkv
    Формат : Matroska
    Версия формата : Version 4/Version 2
    Размер файла : 1, 78 Гбайт
    Продолжительность : 1 ч. 49 м.
    Общий поток : 2321 Кбит/сек
    Название фильма : The Good Liar (2019)
    Программа кодирования : XviD4PSP 8.0.91
    Библиотека кодирования : Lavf58.20.100
    ErrorDetectionType : Per level 1
    ENCODING_INFO : MATROSKA, WEBM MKV 1024x576
    Видео
    Идентификатор : 1
    Формат : HEVC
    Формат/Информация : High Efficiency Video Coding
    Профиль формата : Main10@L4.1@High
    Идентификатор кодека : V_MPEGH/ISO/HEVC
    Продолжительность : 1 ч. 49 м.
    Битрейт : 1955 Кбит/сек
    Ширина : 1024 пикселя
    Высота : 430 пикселей
    Соотношение сторон : 2, 40: 1
    Режим частоты кадров : Постоянный
    Частота кадров : 23, 976 (24000/1001) кадра/сек
    Цветовое пространство : YUV
    Субдискретизация насыщенности : 4: 2: 0
    Битовая глубина : 10 бит
    Бит/(Пиксели*Кадры) : 0.185
    Размер потока : 1, 50 Гбайт (84%)
    Заголовок : ELEKTRI4KA.UNIONGANG
    Default : Да
    Forced : Нет
    Цветовой диапазон : Full
    ENCODING_INFO : H264 HEVC NVENC VBR 2000kbps HQ
    Аудио #1
    Идентификатор : 2
    Формат : AC-3
    Формат/Информация : Audio Coding 3
    Параметр Endianness формата : Big
    Идентификатор кодека : A_AC3
    Продолжительность : 1 ч. 49 м.
    Вид битрейта : Постоянный
    Битрейт : 160 Кбит/сек
    Каналы : 2 канала
    Расположение каналов : Front: L R
    Частота : 48, 0 КГц
    Частота кадров : 31, 250 кадров/сек (1536 SPF)
    Битовая глубина : 16 бит
    Метод сжатия : С потерями
    Размер потока : 125 Мбайт (7%)
    Заголовок : iTunes - ELEKTRI4KA
    Язык : Russian
    ServiceKind/String : Complete Main
    Default : Да
    Forced : Нет
    ENCODING_INFO : AC3 AC3 CBR 160kbps
    Аудио #2
    Идентификатор : 3
    Формат : AC-3
    Формат/Информация : Audio Coding 3
    Параметр Endianness формата : Big
    Идентификатор кодека : A_AC3
    Продолжительность : 1 ч. 49 м.
    Вид битрейта : Постоянный
    Битрейт : 160 Кбит/сек
    Каналы : 2 канала
    Расположение каналов : Front: L R
    Частота : 48, 0 КГц
    Частота кадров : 31, 250 кадров/сек (1536 SPF)
    Битовая глубина : 16 бит
    Метод сжатия : С потерями
    Размер потока : 125 Мбайт (7%)
    Заголовок : ELEKTRI4KA.UNIONGANG
    Язык : English
    ServiceKind/String : Complete Main
    Default : Нет
    Forced : Нет
    ENCODING_INFO : DTS-HD MA AC3 CBR 160kbps
    Текст
    Идентификатор : 4
    Формат : UTF-8
    Идентификатор кодека : S_TEXT/UTF8
    Идентификатор кодека/Информация : UTF-8 Plain Text
    Заголовок : Russian
    Язык : Russian
    Default : Да
    Forced : Нет
    ENCODING_INFO : SUBRIP COPY Быстрое
    Меню
    00: 00: 00.000 : : 00: 00: 00.000
    00: 07: 26.029 : : 00: 07: 26.029
    00: 17: 30.090 : : 00: 17: 30.091
    00: 26: 54.112 : : 00: 26: 54.112
    00: 34: 31.652 : : 00: 34: 31.653
    00: 43: 15.843 : : 00: 43: 15.843
    00: 52: 14.340 : : 00: 52: 14.340
    01: 00: 50.772 : : 01: 00: 50.772
    01: 08: 18.176 : : 01: 08: 18.177
    01: 17: 54.712 : : 01: 17: 54.712
    01: 27: 05.720 : : 01: 27: 05.720
    01: 36: 41.838 : : 01: 36: 41.838
    01: 45: 10.179 : : 01: 45: 10.179

    Скриншоты для ознакомления



    Все одноименные релизы в Клубе
    Время раздачи: 19 - 23 (до появления первых 3-5 скачавших)

    Онлайн видео Хороший лжец


    Хороший лжец/The Good Liar (2019) BDRip [H.265] [10-bit]

    Хороший лжец / The Good Liar (2019) BDRip [H.265] [10-bit] торрент скачать бесплатно
    Рейтинг →
     (голосов: 1, оценка 3/5, голосовать можно 1 раз )

    Другие торренты по теме:

  • Хороший лжец / The Good Liar (2019) HDRip [AVO]
  • Хороший лжец / The Good Liar (2019) BDRip [H.264 / 1080p] [AVO] [PR]
  • Хороший лжец / The Good Liar (2019) BDRip [H.264 / 1080p] [PR]
  • Хороший лжец / The Good Liar (2019) BDRip [H.265 / 720p] [10-bit] [PR]
  • Хороший лжец / The Good Liar (2019) BDRip [H.264]
  • Хороший лжец / The Good Liar (2019) BDRemux [H.264 / 1080p]
  • Хороший лжец / The Good Liar (2019) BDRip [H.264 / 1080p]
  • Хороший лжец / The Good Liar (2019) BDRip [H.264 / 720p]


    • Комментарии (0):

      Информация

      Информация

        Посетители, находящиеся в группе Гости, не могут оставлять комментарии в данной новости.

        ↓ Меню




        ↓ Опрос

        Вы добавили сайт в закладки?
        Да
        Нет


        Популярное