.
Авторизация | Регистрация
bitok.xyz
Торрент скачать бесплатно Фильмы торрент скачать Неогранённые алмазы (Неогранённые драгоценности) / Uncut Gems (2019) WEB-DLRip [H.265] [10-bit] торрент скачать бесплатно


    Неогранённые алмазы (Неогранённые драгоценности) / Uncut Gems (2019) WEB-DLRip [H.265] [10-bit] торрент скачать бесплатно

    Дата: 1-02-2020, 05:00 | .torrent скачали: 0

    Неогранённые алмазы (Неогранённые драгоценности) / Uncut Gems (2019) WEB-DLRip [H.265] [10-bit]Производство: США/Elara Pictures, IAC Films, Scott Rudin Productions
    Жанр: Триллер, драма, криминал
    Режиссер: Бен Сэфди, Джошуа Сэфди
    Продюсер: Оскар Бойсон, Майкл Бартол, Себастьян Бир-Макклард

    Актеры
    Адам Сэндлер, Джулия Фокс, Идина Мензел, Лакит Стэнфилд, Кевин Гарнетт, Эрик Богосян, Кит Уильямс Ричардс, Джадд Хёрш, Майк Франчеза, Ноа Фишер

    Описание

    Говард Ратнер владеет ювелирным магазином. Чтобы сохранить бизнес, он влезает в долги, которые обязан погасить в короткие сроки.

    Рейтинг MPAA: R (лицам до 17 лет обязательно присутствие взрослого)
    Дата мировой премьеры: 30 августа 2019
    Продолжительность: 02: 15: 48
    Качество видео: WEB-DLRip
    Перевод: Дублированный (Пифагор)
    Субтитры: Русские, английские, немецкие
    Видео: HEVC/H.265, 1024x428, 1950 Kbps
    Аудио 1: AC3, 2 ch, 160 Kbps | Русский
    Аудио 2: AC3, 2 ch, 160 Kbps | АнглийскийОбщее
    Уникальный идентификатор : 333860855948347613175051525100901864099 (0xFB2B4310A9104FDBFE1E0BD405C192A3)
    Полное имя : Uncut.Gems.2019.WEB-DLRip.HEVC.mkv
    Формат : Matroska
    Версия формата : Version 4/Version 2
    Размер файла : 2, 20 Гбайт
    Продолжительность : 2 ч. 15 м.
    Общий поток : 2316 Кбит/сек
    Название фильма : Uncut Gems (2019) - EniaHD
    Программа кодирования : XviD4PSP 8.0.91
    Библиотека кодирования : Lavf58.20.100
    ErrorDetectionType : Per level 1
    ENCODING_INFO : MATROSKA, WEBM MKV 1024x576
    Видео
    Идентификатор : 1
    Формат : HEVC
    Формат/Информация : High Efficiency Video Coding
    Профиль формата : Main10@L4.1@High
    Идентификатор кодека : V_MPEGH/ISO/HEVC
    Продолжительность : 2 ч. 15 м.
    Битрейт : 1950 Кбит/сек
    Ширина : 1024 пикселя
    Высота : 428 пикселей
    Соотношение сторон : 2, 40: 1
    Режим частоты кадров : Постоянный
    Частота кадров : 24, 000 кадра/сек
    Цветовое пространство : YUV
    Субдискретизация насыщенности : 4: 2: 0
    Битовая глубина : 10 бит
    Бит/(Пиксели*Кадры) : 0.185
    Размер потока : 1, 85 Гбайт (84%)
    Default : Да
    Forced : Нет
    Цветовой диапазон : Full
    ENCODING_INFO : H264 HEVC NVENC VBR 2000kbps HQ
    Аудио #1
    Идентификатор : 2
    Формат : AC-3
    Формат/Информация : Audio Coding 3
    Параметр Endianness формата : Big
    Идентификатор кодека : A_AC3
    Продолжительность : 2 ч. 15 м.
    Вид битрейта : Постоянный
    Битрейт : 160 Кбит/сек
    Каналы : 2 канала
    Расположение каналов : Front: L R
    Частота : 48, 0 КГц
    Частота кадров : 31, 250 кадров/сек (1536 SPF)
    Битовая глубина : 16 бит
    Метод сжатия : С потерями
    Размер потока : 155 Мбайт (7%)
    Язык : Russian
    ServiceKind/String : Complete Main
    Default : Да
    Forced : Нет
    ENCODING_INFO : EAC3 AC3 CBR 160kbps
    Аудио #2
    Идентификатор : 3
    Формат : AC-3
    Формат/Информация : Audio Coding 3
    Параметр Endianness формата : Big
    Идентификатор кодека : A_AC3
    Продолжительность : 2 ч. 15 м.
    Вид битрейта : Постоянный
    Битрейт : 160 Кбит/сек
    Каналы : 2 канала
    Расположение каналов : Front: L R
    Частота : 48, 0 КГц
    Частота кадров : 31, 250 кадров/сек (1536 SPF)
    Битовая глубина : 16 бит
    Метод сжатия : С потерями
    Размер потока : 155 Мбайт (7%)
    Язык : English
    ServiceKind/String : Complete Main
    Default : Нет
    Forced : Нет
    ENCODING_INFO : EAC3 AC3 CBR 160kbps
    Текст #1
    Идентификатор : 4
    Формат : UTF-8
    Идентификатор кодека : S_TEXT/UTF8
    Идентификатор кодека/Информация : UTF-8 Plain Text
    Заголовок : Forced
    Язык : Russian
    Default : Да
    Forced : Нет
    ENCODING_INFO : SUBRIP COPY Быстрое
    Текст #2
    Идентификатор : 5
    Формат : UTF-8
    Идентификатор кодека : S_TEXT/UTF8
    Идентификатор кодека/Информация : UTF-8 Plain Text
    Язык : Russian
    Default : Нет
    Forced : Нет
    ENCODING_INFO : SUBRIP COPY Быстрое
    Текст #3
    Идентификатор : 6
    Формат : UTF-8
    Идентификатор кодека : S_TEXT/UTF8
    Идентификатор кодека/Информация : UTF-8 Plain Text
    Язык : English
    Default : Нет
    Forced : Нет
    ENCODING_INFO : SUBRIP COPY Быстрое
    Текст #4
    Идентификатор : 7
    Формат : UTF-8
    Идентификатор кодека : S_TEXT/UTF8
    Идентификатор кодека/Информация : UTF-8 Plain Text
    Заголовок : SDH
    Язык : English
    Default : Нет
    Forced : Нет
    ENCODING_INFO : SUBRIP COPY Быстрое
    Текст #5
    Идентификатор : 8
    Формат : UTF-8
    Идентификатор кодека : S_TEXT/UTF8
    Идентификатор кодека/Информация : UTF-8 Plain Text
    Язык : German
    Default : Нет
    Forced : Нет
    ENCODING_INFO : SUBRIP COPY Быстрое

    Скриншоты для ознакомления



    Все одноименные релизы в Клубе
    Время раздачи: 19 - 23 (до появления первых 3-5 скачавших)

    Онлайн видео Неогранённые алмазы (Неогранённые драгоценности)


    Неогранённые алмазы (Неогранённые драгоценности)/Uncut Gems (2019) WEB-DLRip [H.265] [10-bit]

    Неогранённые алмазы (Неогранённые драгоценности) / Uncut Gems (2019) WEB-DLRip [H.265] [10-bit] торрент скачать бесплатно
    Рейтинг →
     (голосов: 1, оценка 4/5, голосовать можно 1 раз )

    Другие торренты по теме:

  • Неогранённые алмазы (Неогранённые драгоценности) / Uncut Gems (2019) WEB-DL [H.264 / 720p-LQ]
  • Неогранённые алмазы (Неогранённые драгоценности) / Uncut Gems (2019) WEB-DL [H.264 / 1080p-LQ]
  • Неогранённые алмазы / Uncut Gems (2019) WEBRip [H.264 / 2160p]
  • Неогранённые алмазы / Uncut Gems (2019) WEBRip [H.264 / 720p-LQ]


    • Комментарии (0):

      Информация

      Информация

        Посетители, находящиеся в группе Гости, не могут оставлять комментарии в данной новости.

        ↓ Меню




        ↓ Опрос

        Вы добавили сайт в закладки?
        Да
        Нет


        Популярное