.
Авторизация | Регистрация
bitok.xyz
Торрент скачать бесплатно Фильмы торрент скачать Неогранённые алмазы (Неогранённые драгоценности) / Uncut Gems (2019) WEB-DL [H.264 / 720p-LQ] торрент скачать бесплатно


    Неогранённые алмазы (Неогранённые драгоценности) / Uncut Gems (2019) WEB-DL [H.264 / 720p-LQ] торрент скачать бесплатно

    Дата: 1-02-2020, 05:00 | .torrent скачали: 0

    Неогранённые алмазы (Неогранённые драгоценности) / Uncut Gems (2019) WEB-DL [H.264 / 720p-LQ]Производство: США/Elara Pictures, IAC Films, Scott Rudin Productions
    Жанр: Триллер, драма, криминал
    Режиссер: Бен Сэфди, Джошуа Сэфди
    Продюсер: Оскар Бойсон, Майкл Бартол, Себастьян Бир-Макклард

    Актеры
    Адам Сэндлер, Джулия Фокс, Идина Мензел, Лакит Стэнфилд, Кевин Гарнетт, Эрик Богосян, Кит Уильямс Ричардс, Джадд Хёрш, Майк Франчеза, Ноа Фишер

    Описание

    Говард Ратнер владеет ювелирным магазином. Чтобы сохранить бизнес, он влезает в долги, которые обязан погасить в короткие сроки.

    Рейтинг MPAA: R (лицам до 17 лет обязательно присутствие взрослого)
    Дата мировой премьеры: 30 августа 2019
    Релиз от: MrRavage
    Продолжительность: 02: 15: 48
    Качество видео: WEB-DL (NTG)
    Перевод: Дублированный (Пифагор)
    Субтитры: Русские (Forced, Full), английские (Full, SDH)
    Видео: AVC/H.264, 1280x720, ~2490 Kbps
    Аудио 1: E-AC3, 6 ch, 640 Kbps - Русский дубляж
    Аудио 2: E-AC3+Atmos, 6 ch, 768 Kbps - АнглийскийGeneral
    Unique ID : 243451307328656592433349314964460998369 (0xB727042AD3098E429106013B85910EE1)
    Complete name : Uncut.Gems.2019.720p.NF.WEB-DL.DDP5.1.x264-NTG.mkv
    Format : Matroska
    Format version : Version 4
    File size : 3.69 GiB
    Duration : 2 h 15 min
    Overall bit rate mode : Variable
    Overall bit rate : 3 886 kb/s
    Encoded date : UTC 2010-02-22 21: 41: 31
    Writing application : mkvmerge v5.8.0 (\'No Sleep/Pillow\') built on Nov 13 2012 19: 43: 22
    Writing library : libebml v1.3.0 + libmatroska v1.4.0
    Video
    ID : 1
    Format : AVC
    Format/Info : Advanced Video Codec
    Format profile : Main@L3.1
    Format settings : CABAC/3 Ref Frames
    Format settings, CABAC : Yes
    Format settings, Reference : 3 frames
    Codec ID : V_MPEG4/ISO/AVC
    Duration : 2 h 15 min
    Bit rate mode : Variable
    Bit rate : 2 490 kb/s
    Maximum bit rate : 3 735 kb/s
    Width : 1 280 pixels
    Height : 720 pixels
    Display aspect ratio : 16: 9
    Frame rate mode : Constant
    Frame rate : 24.000 FPS
    Color space : YUV
    Chroma subsampling : 4: 2: 0
    Bit depth : 8 bits
    Scan type : Progressive
    Bits/(Pixel*Frame) : 0.113
    Stream size : 2.28 GiB (62%)
    Title : Неогранённые драгоценности/Uncut Gems (2019)
    Writing library : x264 core 148 r2715 7e75228
    Encoding settings : cabac=1/ref=3/deblock=1: 0: 0/analyse=0x1: 0x111/me=umh/subme=10/psy=1/psy_rd=1.00: 0.00/mixed_ref=1/me_range=24/chroma_me=1/trellis=2/8x8dct=0/cqm=0/deadzone=21, 11/fast_pskip=1/chroma_qp_offset=-2/threads=8/lookahead_threads=1/sliced_threads=0/nr=0/decimate=1/interlaced=0/bluray_compat=0/stitchable=1/constrained_intra=0/bframes=2/b_pyramid=0/b_adapt=2/b_bias=0/direct=3/weightb=1/open_gop=0/weightp=2/keyint=250/keyint_min=24/scenecut=0/intra_refresh=0/rc_lookahead=48/rc=2pass/mbtree=1/bitrate=2490/ratetol=1.0/qcomp=0.50/qpmin=6/qpmax=51/qpstep=4/cplxblur=20.0/qblur=0.5/vbv_maxrate=3735/vbv_bufsize=4980/nal_hrd=vbr/filler=0/ip_ratio=1.40/aq=1: 1.00
    Default : Yes
    Forced : No
    Audio #1
    ID : 2
    Format : E-AC-3
    Format/Info : Enhanced AC-3
    Commercial name : Dolby Digital Plus
    Codec ID : A_EAC3
    Duration : 2 h 15 min
    Bit rate mode : Constant
    Bit rate : 640 kb/s
    Channel(s) : 6 channels
    Channel layout : L R C LFE Ls Rs
    Sampling rate : 48.0 kHz
    Frame rate : 31.250 FPS (1536 SPF)
    Compression mode : Lossy
    Stream size : 622 MiB (16%)
    Title : Дубляж, Пифагор по заказу Netflix
    Language : Russian
    Service kind : Complete Main
    Default : Yes
    Forced : No
    Audio #2
    ID : 3
    Format : E-AC-3 JOC
    Format/Info : Enhanced AC-3 with Joint Object Coding
    Commercial name : Dolby Digital Plus with Dolby Atmos
    Codec ID : A_EAC3
    Duration : 2 h 15 min
    Bit rate mode : Constant
    Bit rate : 768 kb/s
    Channel(s) : 6 channels
    Channel layout : L R C LFE Ls Rs
    Sampling rate : 48.0 kHz
    Frame rate : 31.250 FPS (1536 SPF)
    Compression mode : Lossy
    Stream size : 746 MiB (20%)
    Title : English
    Language : English
    Service kind : Complete Main
    Default : No
    Forced : No
    Complexity index : 16
    Number of dynamic objects : 15
    Bed channel count : 1 channel
    Bed channel configuration : LFE
    Text #1
    ID : 4
    Format : UTF-8
    Codec ID : S_TEXT/UTF8
    Codec ID/Info : UTF-8 Plain Text
    Title : Forced
    Language : Russian
    Default : Yes
    Forced : No
    Text #2
    ID : 5
    Format : UTF-8
    Codec ID : S_TEXT/UTF8
    Codec ID/Info : UTF-8 Plain Text
    Title : Full
    Language : Russian
    Default : No
    Forced : No
    Text #3
    ID : 6
    Format : UTF-8
    Codec ID : S_TEXT/UTF8
    Codec ID/Info : UTF-8 Plain Text
    Title : Full
    Language : English
    Default : No
    Forced : No
    Text #4
    ID : 7
    Format : UTF-8
    Codec ID : S_TEXT/UTF8
    Codec ID/Info : UTF-8 Plain Text
    Title : SDH
    Language : English
    Default : No
    Forced : No

    Скриншоты для ознакомления



    Все одноименные релизы в Клубе
    Время раздачи: 24/7 (мультитрекерная раздача)

    Онлайн видео Неогранённые алмазы (Неогранённые драгоценности)


    Неогранённые алмазы (Неогранённые драгоценности)/Uncut Gems (2019) WEB-DL [H.264/720p-LQ]

    Неогранённые алмазы (Неогранённые драгоценности) / Uncut Gems (2019) WEB-DL [H.264 / 720p-LQ] торрент скачать бесплатно
    Рейтинг →
     (голосов: 1, оценка 5/5, голосовать можно 1 раз )

    Другие торренты по теме:

  • Неогранённые алмазы (Неогранённые драгоценности) / Uncut Gems (2019) WEB-DLRip [H.265] [10-bit]
  • Неогранённые алмазы (Неогранённые драгоценности) / Uncut Gems (2019) WEB-DL [H.264 / 1080p-LQ]
  • Неогранённые алмазы / Uncut Gems (2019) WEBRip [H.264 / 2160p]
  • Неогранённые алмазы / Uncut Gems (2019) WEBRip [H.264 / 720p-LQ]


    • Комментарии (0):

      Информация

      Информация

        Посетители, находящиеся в группе Гости, не могут оставлять комментарии в данной новости.

        ↓ Меню




        ↓ Опрос

        Вы добавили сайт в закладки?
        Да
        Нет


        Популярное