.
Авторизация | Регистрация
bitok.xyz
Торрент скачать бесплатно Фильмы торрент скачать Неогранённые алмазы (Неогранённые драгоценности) / Uncut Gems (2019) WEB-DL [H.264 / 1080p-LQ] торрент скачать бесплатно


    Неогранённые алмазы (Неогранённые драгоценности) / Uncut Gems (2019) WEB-DL [H.264 / 1080p-LQ] торрент скачать бесплатно

    Дата: 1-02-2020, 05:00 | .torrent скачали: 0

    Неогранённые алмазы (Неогранённые драгоценности) / Uncut Gems (2019) WEB-DL [H.264 / 1080p-LQ]Производство: США/Elara Pictures, IAC Films, Scott Rudin Productions
    Жанр: Триллер, драма, криминал
    Режиссер: Бен Сэфди, Джошуа Сэфди
    Продюсер: Оскар Бойсон, Майкл Бартол, Себастьян Бир-Макклард

    Актеры
    Адам Сэндлер, Джулия Фокс, Идина Мензел, Лакит Стэнфилд, Кевин Гарнетт, Эрик Богосян, Кит Уильямс Ричардс, Джадд Хёрш, Майк Франчеза, Ноа Фишер

    Описание

    Говард Ратнер владеет ювелирным магазином. Чтобы сохранить бизнес, он влезает в долги, которые обязан погасить в короткие сроки.

    Рейтинг MPAA: R (лицам до 17 лет обязательно присутствие взрослого)
    Дата мировой премьеры: 30 августа 2019
    Релиз от: Kylе
    Продолжительность: 02: 15: 48
    Качество видео: WEB-DL (NTG)
    Перевод: Дублированный (Пифагор)
    Субтитры: Русские (Forced, Full), английские (Full, SDH), немецкие, испанские, финские, французские, итальянские, польские, турецкие
    Видео: AVC/H.264, 1920х1080, ~6982 Kbps
    Аудио 1: E-AC3, 6 ch, 640 Kbps - Русский дубляж
    Аудио 2: E-AC3+Atmos, 6 ch, 768 Kbps - Английский
    Аудио 3: E-AC3, 6 ch, 640 Kbps - АнглийскийGeneral
    Unique ID : 157781377421499343174040896810077630610 (0x76B39683841046E563F74D4C4677B092)
    Complete name : Uncut.Gems.2019.1080p.NF.WEB-DL.DDP5.1.x264-NTG_THD.mkv
    Format : Matroska
    Format version : Version 4
    File size : 8.57 GiB
    Duration : 2 h 15 min
    Overall bit rate mode : Variable
    Overall bit rate : 9 034 kb/s
    Encoded date : UTC 2020-01-31 08: 47: 32
    Writing application : mkvmerge v43.0.0 (\'The Quartermaster\') 64-bit
    Writing library : libebml v1.3.10 + libmatroska v1.5.2
    Video
    ID : 1
    Format : AVC
    Format/Info : Advanced Video Codec
    Format profile : High@L4
    Format settings : CABAC/4 Ref Frames
    Format settings, CABAC : Yes
    Format settings, Reference : 4 frames
    Codec ID : V_MPEG4/ISO/AVC
    Duration : 2 h 15 min
    Bit rate mode : Variable
    Bit rate : 6 982 kb/s
    Maximum bit rate : 20.0 Mb/s
    Width : 1 920 pixels
    Height : 1 080 pixels
    Display aspect ratio : 16: 9
    Frame rate mode : Constant
    Frame rate : 24.000 FPS
    Color space : YUV
    Chroma subsampling : 4: 2: 0
    Bit depth : 8 bits
    Scan type : Progressive
    Bits/(Pixel*Frame) : 0.140
    Stream size : 6.62 GiB (77%)
    Title : English
    Writing library : x264 core 148 r2715 7e75228
    Encoding settings : cabac=1/ref=4/deblock=1: 0: 0/analyse=0x3: 0x111/me=umh/subme=10/psy=1/psy_rd=1.00: 0.00/mixed_ref=1/me_range=120/chroma_me=1/trellis=2/8x8dct=1/cqm=0/deadzone=21, 11/fast_pskip=1/chroma_qp_offset=-2/threads=8/lookahead_threads=2/sliced_threads=0/nr=0/decimate=1/interlaced=0/bluray_compat=0/stitchable=1/constrained_intra=0/bframes=16/b_pyramid=2/b_adapt=2/b_bias=0/direct=3/weightb=1/open_gop=0/weightp=2/keyint=240/keyint_min=121/scenecut=0/intra_refresh=0/rc_lookahead=240/rc=crf/mbtree=1/crf=16.0/qcomp=0.50/qpmin=6/qpmax=51/qpstep=4/vbv_maxrate=20000/vbv_bufsize=25000/crf_max=0.0/nal_hrd=vbr/filler=0/ip_ratio=1.40/aq=1: 0.80
    Language : English
    Default : Yes
    Forced : No
    Audio #1
    ID : 2
    Format : E-AC-3
    Format/Info : Enhanced AC-3
    Commercial name : Dolby Digital Plus
    Codec ID : A_EAC3
    Duration : 2 h 15 min
    Bit rate mode : Constant
    Bit rate : 640 kb/s
    Channel(s) : 6 channels
    Channel layout : L R C LFE Ls Rs
    Sampling rate : 48.0 kHz
    Frame rate : 31.250 FPS (1536 SPF)
    Compression mode : Lossy
    Stream size : 622 MiB (7%)
    Title : Dub, Netflix
    Language : Russian
    Service kind : Complete Main
    Default : Yes
    Forced : No
    Audio #2
    ID : 3
    Format : E-AC-3 JOC
    Format/Info : Enhanced AC-3 with Joint Object Coding
    Commercial name : Dolby Digital Plus with Dolby Atmos
    Codec ID : A_EAC3
    Duration : 2 h 15 min
    Bit rate mode : Constant
    Bit rate : 768 kb/s
    Channel(s) : 6 channels
    Channel layout : L R C LFE Ls Rs
    Sampling rate : 48.0 kHz
    Frame rate : 31.250 FPS (1536 SPF)
    Compression mode : Lossy
    Stream size : 746 MiB (9%)
    Title : English
    Language : English
    Service kind : Complete Main
    Default : No
    Forced : No
    Complexity index : 16
    Number of dynamic objects : 15
    Bed channel count : 1 channel
    Bed channel configuration : LFE
    Audio #3
    ID : 4
    Format : E-AC-3
    Format/Info : Enhanced AC-3
    Commercial name : Dolby Digital Plus
    Codec ID : A_EAC3
    Duration : 2 h 15 min
    Bit rate mode : Constant
    Bit rate : 640 kb/s
    Channel(s) : 6 channels
    Channel layout : L R C LFE Ls Rs
    Sampling rate : 48.0 kHz
    Frame rate : 31.250 FPS (1536 SPF)
    Compression mode : Lossy
    Stream size : 622 MiB (7%)
    Title : Audio Description
    Language : English
    Service kind : Complete Main
    Default : No
    Forced : No
    Text #1
    ID : 5
    Format : UTF-8
    Codec ID : S_TEXT/UTF8
    Codec ID/Info : UTF-8 Plain Text
    Duration : 2 h 14 min
    Bit rate : 2 b/s
    Count of elements : 40
    Stream size : 2.15 KiB (0%)
    Title : Forced
    Language : Russian
    Default : Yes
    Forced : No
    Text #2
    ID : 6
    Format : UTF-8
    Codec ID : S_TEXT/UTF8
    Codec ID/Info : UTF-8 Plain Text
    Duration : 2 h 14 min
    Bit rate : 133 b/s
    Count of elements : 2519
    Stream size : 131 KiB (0%)
    Title : Full
    Language : Russian
    Default : No
    Forced : No
    Text #3
    ID : 7
    Format : UTF-8
    Codec ID : S_TEXT/UTF8
    Codec ID/Info : UTF-8 Plain Text
    Duration : 2 h 9 min
    Bit rate : 107 b/s
    Count of elements : 2584
    Stream size : 102 KiB (0%)
    Language : English
    Default : No
    Forced : No
    Text #4
    ID : 8
    Format : UTF-8
    Codec ID : S_TEXT/UTF8
    Codec ID/Info : UTF-8 Plain Text
    Duration : 2 h 13 min
    Bit rate : 114 b/s
    Count of elements : 2730
    Stream size : 112 KiB (0%)
    Title : SDH
    Language : English
    Default : No
    Forced : No
    Text #5
    ID : 9
    Format : UTF-8
    Codec ID : S_TEXT/UTF8
    Codec ID/Info : UTF-8 Plain Text
    Duration : 2 h 14 min
    Bit rate : 81 b/s
    Count of elements : 2377
    Stream size : 80.0 KiB (0%)
    Language : German
    Default : No
    Forced : No
    Text #6
    ID : 10
    Format : UTF-8
    Codec ID : S_TEXT/UTF8
    Codec ID/Info : UTF-8 Plain Text
    Duration : 2 h 14 min
    Bit rate : 77 b/s
    Count of elements : 2514
    Stream size : 76.4 KiB (0%)
    Language : Spanish
    Default : No
    Forced : No
    Text #7
    ID : 11
    Format : UTF-8
    Codec ID : S_TEXT/UTF8
    Codec ID/Info : UTF-8 Plain Text
    Duration : 2 h 14 min
    Bit rate : 80 b/s
    Count of elements : 2337
    Stream size : 79.1 KiB (0%)
    Language : Finnish
    Default : No
    Forced : No
    Text #8
    ID : 12
    Format : UTF-8
    Codec ID : S_TEXT/UTF8
    Codec ID/Info : UTF-8 Plain Text
    Duration : 2 h 14 min
    Bit rate : 74 b/s
    Count of elements : 2424
    Stream size : 73.5 KiB (0%)
    Language : French
    Default : No
    Forced : No
    Text #9
    ID : 13
    Format : UTF-8
    Codec ID : S_TEXT/UTF8
    Codec ID/Info : UTF-8 Plain Text
    Duration : 2 h 14 min
    Bit rate : 83 b/s
    Count of elements : 2549
    Stream size : 82.1 KiB (0%)
    Language : Italian
    Default : No
    Forced : No
    Text #10
    ID : 14
    Format : UTF-8
    Codec ID : S_TEXT/UTF8
    Codec ID/Info : UTF-8 Plain Text
    Duration : 2 h 14 min
    Bit rate : 72 b/s
    Count of elements : 2538
    Stream size : 71.1 KiB (0%)
    Language : Polish
    Default : No
    Forced : No
    Text #11
    ID : 15
    Format : UTF-8
    Codec ID : S_TEXT/UTF8
    Codec ID/Info : UTF-8 Plain Text
    Duration : 2 h 14 min
    Bit rate : 84 b/s
    Count of elements : 2415
    Stream size : 82.6 KiB (0%)
    Language : Turkish
    Default : No
    Forced : No

    Скриншоты для ознакомления



    Все одноименные релизы в Клубе
    Время раздачи: 24/7 (мультитрекерная раздача)

    Онлайн видео Неогранённые алмазы (Неогранённые драгоценности)


    Неогранённые алмазы (Неогранённые драгоценности)/Uncut Gems (2019) WEB-DL [H.264/1080p-LQ]

    Неогранённые алмазы (Неогранённые драгоценности) / Uncut Gems (2019) WEB-DL [H.264 / 1080p-LQ] торрент скачать бесплатно
    Рейтинг →
     (голосов: 1, оценка 3/5, голосовать можно 1 раз )

    Другие торренты по теме:

  • Неогранённые алмазы (Неогранённые драгоценности) / Uncut Gems (2019) WEB-DLRip [H.265] [10-bit]
  • Неогранённые алмазы (Неогранённые драгоценности) / Uncut Gems (2019) WEB-DL [H.264 / 720p-LQ]
  • Неогранённые алмазы / Uncut Gems (2019) WEBRip [H.264 / 2160p]
  • Неогранённые алмазы / Uncut Gems (2019) WEBRip [H.264 / 720p-LQ]


    • Комментарии (0):

      Информация

      Информация

        Посетители, находящиеся в группе Гости, не могут оставлять комментарии в данной новости.

        ↓ Меню




        ↓ Опрос

        Вы добавили сайт в закладки?
        Да
        Нет


        Популярное