ВАЖНО! Сайт скоро заблокируют! Подписывайся на наш канал в Telegram https://t.me/torrentok и получи доступ к торрентам без ограничений!
.
Авторизация | Регистрация
bitok.xyz
Торрент скачать бесплатно Фильмы торрент скачать Терминатор: Тёмные судьбы / Terminator: Dark Fate (2019) BDRip [H.264 / 1080p] торрент скачать бесплатно


    Терминатор: Тёмные судьбы / Terminator: Dark Fate (2019) BDRip [H.264 / 1080p] торрент скачать бесплатно

    Дата: 1-02-2020, 05:00 | .torrent скачали: 1

    Терминатор: Тёмные судьбы / Terminator: Dark Fate (2019) BDRip [H.264 / 1080p]Производство: США, Китай, Paramount Pictures, Twentieth Century Fox, Skydance Media
    Жанр: Фантастика, боевик, приключения
    Режиссер: Тим Миллер
    Продюсер: Джеймс Кэмерон, Дэвид Эллисон, Эдвард Чэн,

    Актеры
    Арнольд Шварценеггер, Маккензи Дэвис, Линда Хэмилтон, Эдвард Ферлонг, Гэбриел Луна, Наталия Рейес, Том Хоппер, Диего Бонета, Алисия Боррачеро, Энрике Арсе, Стивен Кри, Ферран Фернандес

    Описание

    Мексика. Милая девушка Даниэла Рамос, а для друзей просто Дани, вместе с братом приходит с утра работать на завод, но там выясняется, что их вскоре заменят автоматикой. И это не единственная угроза, которую представляют для девушки машины: тут же на неё нападает присланная из будущего и практически неубиваемая модель терминатора REV-9. Но на защиту Дани встает Грэйс — тоже прибывшая из будущего женщина, модифицировавшая свои боевые характеристики до терминаторского уровня. Вскоре к ним на помощь придёт и Сара Коннор, которая теперь превратилась в настоящую охотницу на роботов-убийц.

    Возраст: 16+ (зрителям, достигшим 16 лет)
    Рейтинг MPAA: R (лицам до 17 лет обязательно присутствие взрослого)
    Дата мировой премьеры: 23 октября 2019
    Дата российской премьеры: 31 октября 2019, Двадцатый Век Фокс СНГ
    Релиз от: seleZen
    Продолжительность: 02: 08: 07
    Качество видео: BDRip
    Перевод: Дублированный (iTunes), Авторский (Д. Есарев)
    Субтитры: Русские (Forced, full), украинские (Forced, full), английские (Full, SDH)
    Видео: AVC/H.264, 1920x804, ~10000 kbps
    Аудио1: AC3, 6 ch, 384 kbps | Русский (DUB iTunes)
    Аудио2: AC3, 6 ch, 640 kbps | Русский (AVO - Д. Есарев)
    Аудио3: DTS, 6 ch, 1509 kbps | Русский (AVO - Д. Есарев)
    Аудио4: AAC LC, 2 ch, 125 kbps | Украинский (DUB iTunes)
    Аудио5: AC3, 6 ch, 640 kbps | Английский
    Общее
    Уникальный идентификатор : 170402074007545025897249435732172163946 (0x80323EE5A66B732E042373E2EE6D4B6A)
    Полное имя : F: Мои Фильмы BT.BASHTEL.RUTerminator.Dark.Fate.2019.BDRip.1080p.seleZen.mkv
    Формат : Matroska
    Версия формата : Version 4
    Размер файла : 11, 9 Гбайт
    Продолжительность : 2 ч. 8 м.
    Общий поток : 13, 3 Мбит/сек
    Название фильма : Terminator: Dark Fate (2019) from селезень
    Дата кодирования : UTC 2020-01-30 19: 18: 04
    Программа кодирования : mkvmerge v40.0.0 (\'Old Town Road + Pony\') 64-bit
    Библиотека кодирования : libebml v1.3.9 + libmatroska v1.5.2
    Обложка : Yes
    Attachments : cover.jpg/cover.jpg
    Видео
    Идентификатор : 1
    Формат : AVC
    Формат/Информация : Advanced Video Codec
    Профиль формата : High@L4.1
    Настройки формата : CABAC/5 Ref Frames
    Параметр CABAC формата : Да
    Параметр RefFrames формата : 5 кадров
    Идентификатор кодека : V_MPEG4/ISO/AVC
    Продолжительность : 2 ч. 8 м.
    Битрейт : 10000 Кбит/сек
    Ширина : 1920 пикселей
    Высота : 804 пикселя
    Соотношение сторон : 2, 40: 1
    Режим частоты кадров : Постоянный
    Частота кадров : 23, 976 (24000/1001) кадра/сек
    Цветовое пространство : YUV
    Субдискретизация насыщенности : 4: 2: 0
    Битовая глубина : 8 бит
    Тип развёртки : Прогрессивная
    Бит/(Пиксели*Кадры) : 0.270
    Размер потока : 8, 94 Гбайт (75%)
    Заголовок : Encoded by seleZen
    Библиотека кодирования : x264 core 142 r2431+42 c69a006 tMod 8-bit@all X86_64
    Настройки программы : cabac=1/ref=5/deblock=1: -2: -2/analyse=0x3: 0x133/me=umh/subme=10/psy=1/fade_compensate=0.00/psy_rd=1.01: 0.02/mixed_ref=1/me_range=32/chroma_me=1/trellis=2/8x8dct=1/cqm=0/deadzone=21, 11/fast_pskip=0/chroma_qp_offset=-3/threads=24/lookahead_threads=4/sliced_threads=0/nr=0/decimate=0/interlaced=0/bluray_compat=0/constrained_intra=0/fgo=0/bframes=8/b_pyramid=2/b_adapt=2/b_bias=0/direct=3/weightb=1/open_gop=0/weightp=2/keyint=240/keyint_min=23/scenecut=40/intra_refresh=0/rc_lookahead=50/rc=2pass/mbtree=0/bitrate=10000/ratetol=1.0/qcomp=0.60/qpmin=0: 0: 0/qpmax=51: 51: 51/qpstep=4/cplxblur=20.0/qblur=0.5/vbv_maxrate=50000/vbv_bufsize=62500/nal_hrd=none/filler=0/ip_ratio=1.40/pb_ratio=1.30/aq=3: 0.80/aq-sensitivity=10.00/aq-factor=1.00: 1.00: 1.00/aq2=0/aq3=0
    Язык : English
    Default : Да
    Forced : Нет
    Аудио #1
    Идентификатор : 2
    Формат : AC-3
    Формат/Информация : Audio Coding 3
    Коммерческое название : Dolby Digital
    Идентификатор кодека : A_AC3
    Продолжительность : 2 ч. 8 м.
    Вид битрейта : Постоянный
    Битрейт : 384 Кбит/сек
    Каналы : 6 каналов
    ChannelLayout : L R C LFE Ls Rs
    Частота : 48, 0 КГц
    Частота кадров : 31, 250 кадров/сек (1536 SPF)
    Битовая глубина : 16 бит
    Метод сжатия : С потерями
    Размер потока : 352 Мбайт (3%)
    Заголовок : iTunes
    Язык : Russian
    ServiceKind/String : Complete Main
    Default : Да
    Forced : Да
    Аудио #2
    Идентификатор : 3
    Формат : AC-3
    Формат/Информация : Audio Coding 3
    Коммерческое название : Dolby Digital
    Идентификатор кодека : A_AC3
    Продолжительность : 2 ч. 8 м.
    Вид битрейта : Постоянный
    Битрейт : 640 Кбит/сек
    Каналы : 6 каналов
    ChannelLayout : L R C LFE Ls Rs
    Частота : 48, 0 КГц
    Частота кадров : 31, 250 кадров/сек (1536 SPF)
    Битовая глубина : 16 бит
    Метод сжатия : С потерями
    Размер потока : 586 Мбайт (5%)
    Заголовок : AVO Yesarev
    Язык : Russian
    ServiceKind/String : Complete Main
    Default : Нет
    Forced : Нет
    Аудио #3
    Идентификатор : 4
    Формат : DTS
    Формат/Информация : Digital Theater Systems
    Идентификатор кодека : A_DTS
    Продолжительность : 2 ч. 8 м.
    Вид битрейта : Постоянный
    Битрейт : 1509 Кбит/сек
    Каналы : 6 каналов
    ChannelLayout : C L R Ls Rs LFE
    Частота : 48, 0 КГц
    Частота кадров : 93, 750 кадра/сек (512 SPF)
    Битовая глубина : 24 бит
    Метод сжатия : С потерями
    Размер потока : 1, 35 Гбайт (11%)
    Заголовок : AVO Yesarev
    Язык : Russian
    Default : Нет
    Forced : Нет
    Аудио #4
    Идентификатор : 5
    Формат : AAC LC
    Формат/Информация : Advanced Audio Codec Low Complexity
    Идентификатор кодека : A_AAC-2
    Продолжительность : 2 ч. 8 м.
    Битрейт : 125 Кбит/сек
    Каналы : 2 канала
    ChannelLayout : L R
    Частота : 44, 1 КГц
    Частота кадров : 43, 066 кадра/сек (1024 SPF)
    Метод сжатия : С потерями
    Размер потока : 115 Мбайт (1%)
    Заголовок : iTunes
    Язык : Ukrainian
    Default : Нет
    Forced : Нет
    Аудио #5
    Идентификатор : 6
    Формат : AC-3
    Формат/Информация : Audio Coding 3
    Коммерческое название : Dolby Digital
    Идентификатор кодека : A_AC3
    Продолжительность : 2 ч. 8 м.
    Вид битрейта : Постоянный
    Битрейт : 640 Кбит/сек
    Каналы : 6 каналов
    ChannelLayout : L R C LFE Ls Rs
    Частота : 48, 0 КГц
    Частота кадров : 31, 250 кадров/сек (1536 SPF)
    Битовая глубина : 16 бит
    Метод сжатия : С потерями
    Размер потока : 586 Мбайт (5%)
    Заголовок : Original
    Язык : English
    ServiceKind/String : Complete Main
    Default : Нет
    Forced : Нет
    Текст #1
    Идентификатор : 7
    Формат : UTF-8
    Идентификатор кодека : S_TEXT/UTF8
    Идентификатор кодека/Информация : UTF-8 Plain Text
    Продолжительность : 2 ч. 4 м.
    Битрейт : 4 бит/сек
    ElementCount : 143
    Размер потока : 4, 36 Кбайт (0%)
    Заголовок : Forced iTunes
    Язык : Russian
    Default : Да
    Forced : Да
    Текст #2
    Идентификатор : 8
    Формат : UTF-8
    Идентификатор кодека : S_TEXT/UTF8
    Идентификатор кодека/Информация : UTF-8 Plain Text
    Продолжительность : 2 ч. 7 м.
    Битрейт : 49 бит/сек
    ElementCount : 1250
    Размер потока : 46, 2 Кбайт (0%)
    Заголовок : Full iTunes
    Язык : Russian
    Default : Нет
    Forced : Нет
    Текст #3
    Идентификатор : 9
    Формат : UTF-8
    Идентификатор кодека : S_TEXT/UTF8
    Идентификатор кодека/Информация : UTF-8 Plain Text
    Продолжительность : 1 ч. 57 м.
    Битрейт : 61 бит/сек
    ElementCount : 1178
    Размер потока : 53, 4 Кбайт (0%)
    Заголовок : Full Enigma
    Язык : Russian
    Default : Нет
    Forced : Нет
    Текст #4
    Идентификатор : 10
    Формат : UTF-8
    Идентификатор кодека : S_TEXT/UTF8
    Идентификатор кодека/Информация : UTF-8 Plain Text
    Продолжительность : 2 ч. 7 м.
    Битрейт : 50 бит/сек
    ElementCount : 1250
    Размер потока : 46, 8 Кбайт (0%)
    Заголовок : Full Fadeev, Levina
    Язык : Russian
    Default : Нет
    Forced : Нет
    Текст #5
    Идентификатор : 11
    Формат : UTF-8
    Идентификатор кодека : S_TEXT/UTF8
    Идентификатор кодека/Информация : UTF-8 Plain Text
    Продолжительность : 2 ч. 4 м.
    Битрейт : 4 бит/сек
    ElementCount : 139
    Размер потока : 4, 42 Кбайт (0%)
    Заголовок : Forced iTunes
    Язык : Ukrainian
    Default : Нет
    Forced : Нет
    Текст #6
    Идентификатор : 12
    Формат : UTF-8
    Идентификатор кодека : S_TEXT/UTF8
    Идентификатор кодека/Информация : UTF-8 Plain Text
    Продолжительность : 2 ч. 7 м.
    Битрейт : 50 бит/сек
    ElementCount : 1239
    Размер потока : 47, 1 Кбайт (0%)
    Заголовок : Full iTunes
    Язык : Ukrainian
    Default : Нет
    Forced : Нет
    Текст #7
    Идентификатор : 13
    Формат : UTF-8
    Идентификатор кодека : S_TEXT/UTF8
    Идентификатор кодека/Информация : UTF-8 Plain Text
    Продолжительность : 1 ч. 57 м.
    Битрейт : 31 бит/сек
    ElementCount : 1078
    Размер потока : 27, 2 Кбайт (0%)
    Заголовок : Full
    Язык : English
    Default : Нет
    Forced : Нет
    Текст #8
    Идентификатор : 14
    Формат : UTF-8
    Идентификатор кодека : S_TEXT/UTF8
    Идентификатор кодека/Информация : UTF-8 Plain Text
    Продолжительность : 1 ч. 57 м.
    Битрейт : 39 бит/сек
    ElementCount : 1388
    Размер потока : 34, 3 Кбайт (0%)
    Заголовок : SDH
    Язык : English
    Default : Нет
    Forced : Нет
    Текст #9
    Идентификатор : 15
    Формат : UTF-8
    Идентификатор кодека : S_TEXT/UTF8
    Идентификатор кодека/Информация : UTF-8 Plain Text
    Продолжительность : 1 ч. 57 м.
    Битрейт : 68 бит/сек
    ElementCount : 1388
    Размер потока : 58, 6 Кбайт (0%)
    Заголовок : SDH Colored
    Язык : English
    Default : Нет
    Forced : Нет
    Меню
    00: 00: 00.000 : en: Глава 01
    00: 04: 19.843 : en: Глава 02
    00: 07: 48.927 : en: Глава 03
    00: 11: 47.916 : en: Глава 04
    00: 16: 56.349 : en: Глава 05
    00: 22: 10.663 : en: Глава 06
    00: 29: 00.614 : en: Глава 07
    00: 33: 25.754 : en: Глава 08
    00: 41: 35.493 : en: Глава 09
    00: 47: 02.695 : en: Глава 10
    00: 53: 08.936 : en: Глава 11
    00: 57: 56.807 : en: Глава 12
    01: 05: 02.690 : en: Глава 13
    01: 13: 07.967 : en: Глава 14
    01: 20: 45.591 : en: Глава 15
    01: 27: 29.744 : en: Глава 16
    01: 32: 48.688 : en: Глава 17
    01: 41: 45.850 : en: Глава 18
    01: 49: 35.319 : en: Глава 19
    01: 57: 58.613 : en: Глава 20

    Скриншоты для ознакомления



    Все одноименные релизы в Клубе
    Время раздачи: 24/7 (круглосуточно) (до появления первых 3-5 скачавших)

    Онлайн видео Терминатор: Тёмные судьбы


    Терминатор: Тёмные судьбы/Terminator: Dark Fate (2019) BDRip [H.264/1080p]

    Терминатор: Тёмные судьбы / Terminator: Dark Fate (2019) BDRip [H.264 / 1080p] торрент скачать бесплатно
    Рейтинг →
     (голосов: 1, оценка 5/5, голосовать можно 1 раз )

    Другие торренты по теме:

  • Терминатор: Тёмные судьбы / Terminator: Dark Fate (2019) WEB-DLRip [H.264 / 1080p-LQ] [Line, AD]
  • Терминатор: Тёмные судьбы / Terminator: Dark Fate (2019) WEB-DLRip [Line] [AD]
  • Терминатор: Тёмные судьбы / Terminator: Dark Fate (2019) WEBRip [H.264 / 720p-LQ] [Line, AD]
  • Терминатор: Тёмные судьбы / Terminator: Dark Fate (2019) WEBRip [H.264 / 1080p] [EN / EN Sub]
  • Терминатор: Тёмные судьбы / Terminator: Dark Fate (2019) UHD BDRemux [H.265 / 2160p] [4K, HDR, 10-bit]
  • Терминатор: Тёмные судьбы / Terminator: Dark Fate (2019) AC3 5.1 [hand made]
  • Терминатор: Тёмные судьбы / Terminator: Dark Fate (2019) WEBRip [H.264 / 2160p] [4K, SDR, 8-bit] [MVO]
  • Терминатор: Тёмные судьбы / Terminator: Dark Fate (2019) BDRip [H.264 / 720p] [MVO] [PR]


    • Комментарии (0):

      Информация

      Информация

        Посетители, находящиеся в группе Гости, не могут оставлять комментарии в данной новости.

        ↓ Меню




        Популярное