.
Авторизация | Регистрация
bitok.xyz
Торрент скачать бесплатно Фильмы торрент скачать Ночь в осаде / Trauma Center (2019) BDRip [H.264 / 1080p] торрент скачать бесплатно


    Ночь в осаде / Trauma Center (2019) BDRip [H.264 / 1080p] торрент скачать бесплатно

    Дата: 1-02-2020, 05:00 | .torrent скачали: 0

    Ночь в осаде / Trauma Center (2019) BDRip [H.264 / 1080p]Производство: США, BondIt Media Capital, Buffalo 8 Productions, Emmett/Furla/Oasis Films
    Жанр: Боевик, триллер
    Режиссер: Мэтт Эскандари
    Продюсер: Рэндолл Эмметт, Джордж Фурла, Луильо Руис,

    Актеры
    Брюс Уиллис, Никки Уилан, Стив Гуттенберг, Тексас Бэттл, Роман Митичян, Тайлер Джон Олсон, Хезер Йохансен, Тито Ортис, Дэйв Медоуз, Линн Гилмартин

    Описание

    Избитая неизвестными испуганная женщина оказывается ночью одна в больничном изоляторе травматологического центра. Она раненая и обессилена, и теперь ей придётся найти в себе силы сбежать от двух киллеров, которые пришли за важной уликой, указывающей на их причастие к громким криминальным делам. К счастью, ветеран полиции получает задание защищать женщину.

    Возраст: 18+ (зрителям, достигшим 18 лет. запрещено для детей)
    Рейтинг MPAA: R (лицам до 17 лет обязательно присутствие взрослого)
    Дата мировой премьеры: 6 декабря 2019
    Дата российской премьеры: 10 января 2020, Вольга
    Релиз от: seleZen
    Продолжительность: 01: 27: 00
    Качество видео: BDRip
    Перевод: Дублированный (iTunes)
    Субтитры: Английские (Full)
    Видео: AVC/H.264, 1920x802, ~10, 9 Mbps
    Аудио 1 : AC3, 6 ch, 384 Kbps - Русский
    Аудио 2 : AC3, 6 ch, 640 Kbps - Английский
    Общее
    Уникальный идентификатор : 287172626763747210099840090171088507884 (0xD80B6FA4DB52681F6D7C40BE60F313EC)
    Полное имя : C: Новая папка (2)Trauma.Center.2019.BDRip.1080p.seleZen.mkv
    Формат : Matroska
    Версия формата : Version 4
    Размер файла : 7, 26 Гбайт
    Продолжительность : 1 ч. 27 м.
    Общий поток : 11, 9 Мбит/сек
    Название фильма : Trauma Center 2019 from селезень
    Дата кодирования : UTC 2020-01-30 10: 22: 24
    Программа кодирования : mkvmerge v40.0.0 (\'Old Town Road + Pony\') 64-bit
    Библиотека кодирования : libebml v1.3.9 + libmatroska v1.5.2
    Видео
    Идентификатор : 1
    Формат : AVC
    Формат/Информация : Advanced Video Codec
    Профиль формата : High@L4.1
    Настройки формата : CABAC/5 Ref Frames
    Параметр CABAC формата : Да
    Параметр RefFrames формата : 5 кадров
    Идентификатор кодека : V_MPEG4/ISO/AVC
    Продолжительность : 1 ч. 27 м.
    Битрейт : 10, 9 Мбит/сек
    Ширина : 1920 пикселей
    Высота : 802 пикселя
    Соотношение сторон : 2, 40: 1
    Режим частоты кадров : Постоянный
    Частота кадров : 23, 976 (24000/1001) кадра/сек
    Цветовое пространство : YUV
    Субдискретизация насыщенности : 4: 2: 0
    Битовая глубина : 8 бит
    Тип развёртки : Прогрессивная
    Бит/(Пиксели*Кадры) : 0.296
    Размер потока : 6, 49 Гбайт (89%)
    Заголовок : Encoded by seleZen
    Библиотека кодирования : x264 core 142 r2431+42 c69a006 tMod 8-bit@all X86_64
    Настройки программы : cabac=1/ref=5/deblock=1: -2: -2/analyse=0x3: 0x133/me=umh/subme=11/psy=1/fade_compensate=0.00/psy_rd=1.01: 0.01/mixed_ref=1/me_range=32/chroma_me=1/trellis=2/8x8dct=1/cqm=0/deadzone=21, 11/fast_pskip=0/chroma_qp_offset=-3/threads=24/lookahead_threads=6/sliced_threads=0/nr=0/decimate=0/interlaced=0/bluray_compat=0/constrained_intra=0/fgo=0/bframes=10/b_pyramid=2/b_adapt=2/b_bias=0/direct=3/weightb=1/open_gop=0/weightp=2/keyint=240/keyint_min=23/scenecut=40/intra_refresh=0/rc_lookahead=50/rc=2pass/mbtree=0/bitrate=10926/ratetol=1.0/qcomp=0.60/qpmin=0: 0: 0/qpmax=51: 51: 51/qpstep=4/cplxblur=20.0/qblur=0.5/vbv_maxrate=50000/vbv_bufsize=62500/nal_hrd=none/filler=0/ip_ratio=1.40/pb_ratio=1.30/aq=3: 0.80/aq-sensitivity=10.00/aq-factor=1.00: 1.00: 1.00/aq2=0/aq3=0
    Язык : English
    Default : Да
    Forced : Нет
    Аудио #1
    Идентификатор : 2
    Формат : AC-3
    Формат/Информация : Audio Coding 3
    Коммерческое название : Dolby Digital
    Идентификатор кодека : A_AC3
    Продолжительность : 1 ч. 27 м.
    Вид битрейта : Постоянный
    Битрейт : 384 Кбит/сек
    Каналы : 6 каналов
    ChannelLayout : L R C LFE Ls Rs
    Частота : 48, 0 КГц
    Частота кадров : 31, 250 кадров/сек (1536 SPF)
    Битовая глубина : 16 бит
    Метод сжатия : С потерями
    Размер потока : 239 Мбайт (3%)
    Заголовок : iTunes
    Язык : Russian
    ServiceKind/String : Complete Main
    Default : Да
    Forced : Да
    Аудио #2
    Идентификатор : 3
    Формат : AC-3
    Формат/Информация : Audio Coding 3
    Коммерческое название : Dolby Digital
    Идентификатор кодека : A_AC3
    Продолжительность : 1 ч. 27 м.
    Вид битрейта : Постоянный
    Битрейт : 640 Кбит/сек
    Каналы : 6 каналов
    ChannelLayout : L R C LFE Ls Rs
    Частота : 48, 0 КГц
    Частота кадров : 31, 250 кадров/сек (1536 SPF)
    Битовая глубина : 16 бит
    Метод сжатия : С потерями
    Размер потока : 398 Мбайт (5%)
    Заголовок : Original
    Язык : English
    ServiceKind/String : Complete Main
    Default : Нет
    Forced : Нет
    Текст
    Идентификатор : 4
    Формат : UTF-8
    Идентификатор кодека : S_TEXT/UTF8
    Идентификатор кодека/Информация : UTF-8 Plain Text
    Заголовок : Full
    Язык : English
    Default : Нет
    Forced : Нет
    Меню
    00: 00: 00.000 : en: Глава 01
    00: 02: 45.999 : en: Глава 02
    00: 08: 48.611 : en: Глава 03
    00: 14: 10.683 : en: Глава 04
    00: 17: 57.410 : en: Глава 05
    00: 22: 01.946 : en: Глава 06
    00: 25: 46.795 : en: Глава 07
    00: 28: 08.896 : en: Глава 08
    00: 35: 48.104 : en: Глава 09
    00: 43: 25.520 : en: Глава 10
    00: 47: 59.585 : en: Глава 11
    00: 51: 00.432 : en: Глава 12
    00: 57: 30.989 : en: Глава 13
    01: 07: 26.251 : en: Глава 14
    01: 12: 26.467 : en: Глава 15
    01: 18: 04.805 : en: Глава 16

    Скриншоты для ознакомления



    Все одноименные релизы в Клубе
    Время раздачи: 24/7 (круглосуточно) (до появления первых 3-5 скачавших)

    Онлайн видео Ночь в осаде


    Ночь в осаде/Trauma Center (2019) BDRip [H.264/1080p]

    Ночь в осаде / Trauma Center (2019) BDRip [H.264 / 1080p] торрент скачать бесплатно
    Рейтинг →
     (голосов: 1, оценка 4/5, голосовать можно 1 раз )

    Другие торренты по теме:

  • Ночь в осаде / Trauma Center (2019) WEB-DLRip [MVO] [AD]
  • Ночь в осаде / Trauma Center (2019) WEB-DLRip [Extended Cut]
  • Ночь в осаде / Trauma Center (2019) WEB-DL [H.264 / 1080p-LQ] [Extended Cut]
  • Ночь в осаде / Trauma Center (2019) WEBRip [H.264 / 720p-LQ] [Extended Cut]
  • Ночь в осаде / Trauma Center (2019) WEB-DLRip [H.265] [10-bit]
  • Ночь в осаде / Trauma Center (2019) WEB-DLRip
  • Ночь в осаде / Trauma Center (2019) WEB-DLRip [H.264 / 1080p-LQ] [MVO] [AD]
  • Ночь в осаде / Trauma Center (2019) BDRip


    • Комментарии (0):

      Информация

      Информация

        Посетители, находящиеся в группе Гости, не могут оставлять комментарии в данной новости.

        ↓ Меню




        ↓ Опрос

        Вы добавили сайт в закладки?
        Да
        Нет


        Популярное