.
Авторизация | Регистрация
bitok.xyz
Торрент скачать бесплатно Фильмы торрент скачать Терминатор: Тёмные судьбы / Terminator: Dark Fate (2019) BDRip [H.265 / 720p] [10-bit] [PR] торрент скачать бесплатно


    Терминатор: Тёмные судьбы / Terminator: Dark Fate (2019) BDRip [H.265 / 720p] [10-bit] [PR] торрент скачать бесплатно

    Дата: 1-02-2020, 05:00 | .torrent скачали: 0

    Терминатор: Тёмные судьбы / Terminator: Dark Fate (2019) BDRip [H.265 / 720p] [10-bit] [PR]Производство: США, Китай, 20th Century Fox Film Corporation, ...
    Жанр: фантастика, боевик, приключения
    Режиссер: Тим Миллер
    Продюсер: Джеймс Кэмерон, Дэвид Эллисон, Эдвард Чэн

    Актеры
    Арнольд Шварценеггер, Эдвард Ферлонг, Линда Хэмилтон, Диего Бонета, Маккензи Дэвис, Том Хоппер, Бретт Азар, Гэбриел Луна, Наталия Рейес, Кассандра Старр

    Описание

    Сара Коннор превратилась в настоящую охотницу за терминаторами и теперь занимается уничтожением роботов-убийц из будущего. Она считала, что главное — это не дать им добраться до Джона, но теперь появилась Дани Рамос, от выживания которой также зависит судьба человечества. Вместе с ней в бой вступает и загадочная Грейс, смесь человека и машины.

    Возраст: 16+ (зрителям, достигшим 16 лет)
    Рейтинг MPAA: R (лицам до 17 лет обязательно присутствие взрослого)
    Дата мировой премьеры: 23 октября 2019
    Дата российской премьеры: 31 октября 2019, Двадцатый Век Фокс СНГ
    Продолжительность: 02: 08: 05
    Качество видео: BDRip
    Перевод: Дублированный (iTunes)
    Субтитры: Русские, английские
    Видео: HEVC/H.265, 1280x536, 4879 Kbps
    Аудио 1: AC3, 6 ch, 384 Kbps | Русский
    Аудио 2: AC3, 6 ch, 448 Kbps | АнглийскийОбщее
    Уникальный идентификатор : 128357239053696500466032149636432073545 (0x6090B47CAA4413DC946B7EB78FB91349)
    Полное имя : Terminator.Dark.Fate.2019.BDRip.720p.HEVC.mkv
    Формат : Matroska
    Версия формата : Version 4/Version 2
    Размер файла : 5, 21 Гбайт
    Продолжительность : 2 ч. 8 м.
    Общий поток : 5827 Кбит/сек
    Название фильма : Terminator: Dark Fate (2019) from селезень
    Программа кодирования : XviD4PSP 8.0.91
    Библиотека кодирования : Lavf58.20.100
    Обложка : Yes
    ErrorDetectionType : Per level 1
    Attachments : cover/cover
    ENCODING_INFO : JPEG COPY Быстрое
    Язык : und
    Видео
    Идентификатор : 1
    Формат : HEVC
    Формат/Информация : High Efficiency Video Coding
    Профиль формата : Main10@L4.1@High
    Идентификатор кодека : V_MPEGH/ISO/HEVC
    Продолжительность : 2 ч. 8 м.
    Битрейт : 4879 Кбит/сек
    Ширина : 1280 пикселей
    Высота : 536 пикселей
    Соотношение сторон : 2, 40: 1
    Режим частоты кадров : Постоянный
    Частота кадров : 23, 976 (24000/1001) кадра/сек
    Цветовое пространство : YUV
    Субдискретизация насыщенности : 4: 2: 0
    Битовая глубина : 10 бит
    Бит/(Пиксели*Кадры) : 0.297
    Размер потока : 4, 37 Гбайт (84%)
    Язык : English
    Default : Да
    Forced : Нет
    Цветовой диапазон : Full
    ENCODING_INFO : H264 HEVC NVENC VBR 5000kbps HQ
    Аудио #1
    Идентификатор : 2
    Формат : AC-3
    Формат/Информация : Audio Coding 3
    Параметр Endianness формата : Big
    Идентификатор кодека : A_AC3
    Продолжительность : 2 ч. 8 м.
    Вид битрейта : Постоянный
    Битрейт : 384 Кбит/сек
    Каналы : 6 каналов
    Расположение каналов : Front: L C R, Side: L R, LFE
    Частота : 48, 0 КГц
    Частота кадров : 31, 250 кадров/сек (1536 SPF)
    Битовая глубина : 16 бит
    Метод сжатия : С потерями
    Размер потока : 352 Мбайт (7%)
    Заголовок : iTunes
    Язык : Russian
    ServiceKind/String : Complete Main
    Default : Да
    Forced : Нет
    ENCODING_INFO : AC3 COPY Безопасное
    Аудио #2
    Идентификатор : 3
    Формат : AC-3
    Формат/Информация : Audio Coding 3
    Параметр Endianness формата : Big
    Идентификатор кодека : A_AC3
    Продолжительность : 2 ч. 8 м.
    Вид битрейта : Постоянный
    Битрейт : 448 Кбит/сек
    Каналы : 6 каналов
    Расположение каналов : Front: L C R, Side: L R, LFE
    Частота : 48, 0 КГц
    Частота кадров : 31, 250 кадров/сек (1536 SPF)
    Битовая глубина : 16 бит
    Метод сжатия : С потерями
    Размер потока : 411 Мбайт (8%)
    Язык : English
    ServiceKind/String : Complete Main
    Default : Нет
    Forced : Нет
    ENCODING_INFO : AC3 AC3 CBR 448kbps
    Текст #1
    Идентификатор : 4
    Формат : UTF-8
    Идентификатор кодека : S_TEXT/UTF8
    Идентификатор кодека/Информация : UTF-8 Plain Text
    Заголовок : Forced iTunes
    Язык : Russian
    Default : Да
    Forced : Да
    ENCODING_INFO : SUBRIP COPY Быстрое
    Текст #2
    Идентификатор : 5
    Формат : UTF-8
    Идентификатор кодека : S_TEXT/UTF8
    Идентификатор кодека/Информация : UTF-8 Plain Text
    Заголовок : Full iTunes
    Язык : Russian
    Default : Нет
    Forced : Нет
    ENCODING_INFO : SUBRIP COPY Быстрое
    Текст #3
    Идентификатор : 6
    Формат : UTF-8
    Идентификатор кодека : S_TEXT/UTF8
    Идентификатор кодека/Информация : UTF-8 Plain Text
    Заголовок : Full Enigma
    Язык : Russian
    Default : Нет
    Forced : Нет
    ENCODING_INFO : SUBRIP COPY Быстрое
    Текст #4
    Идентификатор : 7
    Формат : UTF-8
    Идентификатор кодека : S_TEXT/UTF8
    Идентификатор кодека/Информация : UTF-8 Plain Text
    Заголовок : Full Fadeev, Levina
    Язык : Russian
    Default : Нет
    Forced : Нет
    ENCODING_INFO : SUBRIP COPY Быстрое
    Текст #5
    Идентификатор : 8
    Формат : UTF-8
    Идентификатор кодека : S_TEXT/UTF8
    Идентификатор кодека/Информация : UTF-8 Plain Text
    Заголовок : Full
    Язык : English
    Default : Нет
    Forced : Нет
    ENCODING_INFO : SUBRIP COPY Быстрое
    Текст #6
    Идентификатор : 9
    Формат : UTF-8
    Идентификатор кодека : S_TEXT/UTF8
    Идентификатор кодека/Информация : UTF-8 Plain Text
    Заголовок : SDH
    Язык : English
    Default : Нет
    Forced : Нет
    ENCODING_INFO : SUBRIP COPY Быстрое
    Текст #7
    Идентификатор : 10
    Формат : UTF-8
    Идентификатор кодека : S_TEXT/UTF8
    Идентификатор кодека/Информация : UTF-8 Plain Text
    Заголовок : SDH Colored
    Язык : English
    Default : Нет
    Forced : Нет
    ENCODING_INFO : SUBRIP COPY Быстрое
    Меню
    00: 00: 00.000 : : Глава 01
    00: 04: 19.843 : : Глава 02
    00: 07: 48.927 : : Глава 03
    00: 11: 47.916 : : Глава 04
    00: 16: 56.349 : : Глава 05
    00: 22: 10.663 : : Глава 06
    00: 29: 00.614 : : Глава 07
    00: 33: 25.754 : : Глава 08
    00: 41: 35.493 : : Глава 09
    00: 47: 02.695 : : Глава 10
    00: 53: 08.936 : : Глава 11
    00: 57: 56.807 : : Глава 12
    01: 05: 02.690 : : Глава 13
    01: 13: 07.967 : : Глава 14
    01: 20: 45.591 : : Глава 15
    01: 27: 29.744 : : Глава 16
    01: 32: 48.688 : : Глава 17
    01: 41: 45.850 : : Глава 18
    01: 49: 35.319 : : Глава 19
    01: 57: 58.613 : : Глава 20

    Скриншоты для ознакомления



    Все одноименные релизы в Клубе
    Время раздачи: 19 - 23 (до появления первых 3-5 скачавших)

    Онлайн видео Терминатор: Тёмные судьбы


    Терминатор: Тёмные судьбы/Terminator: Dark Fate (2019) BDRip [H.265/720p] [10-bit] [PR]

    Терминатор: Тёмные судьбы / Terminator: Dark Fate (2019) BDRip [H.265 / 720p] [10-bit] [PR] торрент скачать бесплатно
    Рейтинг →
     (голосов: 1, оценка 5/5, голосовать можно 1 раз )

    Другие торренты по теме:

  • Терминатор: Тёмные судьбы / Terminator: Dark Fate (2019) WEB-DLRip [H.264 / 1080p-LQ] [Line, AD]
  • Терминатор: Тёмные судьбы / Terminator: Dark Fate (2019) WEB-DLRip [Line] [AD]
  • Терминатор: Тёмные судьбы / Terminator: Dark Fate (2019) WEBRip [H.264 / 720p-LQ] [Line, AD]
  • Терминатор: Тёмные судьбы / Terminator: Dark Fate (2019) WEBRip [H.264 / 1080p] [EN / EN Sub]
  • Терминатор: Тёмные судьбы / Terminator: Dark Fate (2019) UHD BDRemux [H.265 / 2160p] [4K, HDR, 10-bit]
  • Терминатор: Тёмные судьбы / Terminator: Dark Fate (2019) AC3 5.1 [hand made]
  • Терминатор: Тёмные судьбы / Terminator: Dark Fate (2019) WEBRip [H.264 / 2160p] [4K, SDR, 8-bit] [MVO]
  • Терминатор: Тёмные судьбы / Terminator: Dark Fate (2019) BDRip [H.264 / 720p] [MVO] [PR]


    • Комментарии (0):

      Информация

      Информация

        Посетители, находящиеся в группе Гости, не могут оставлять комментарии в данной новости.

        ↓ Меню




        ↓ Опрос

        Вы добавили сайт в закладки?
        Да
        Нет


        Популярное