.
Авторизация | Регистрация
bitok.xyz
Торрент скачать бесплатно Фильмы торрент скачать Терминатор: Тёмные судьбы / Terminator: Dark Fate (2019) BDRip [H.265 / 1080p] [10-bit] торрент скачать бесплатно


    Терминатор: Тёмные судьбы / Terminator: Dark Fate (2019) BDRip [H.265 / 1080p] [10-bit] торрент скачать бесплатно

    Дата: 1-02-2020, 05:00 | .torrent скачали: 0

    Терминатор: Тёмные судьбы / Terminator: Dark Fate (2019) BDRip [H.265 / 1080p] [10-bit]Производство: США, Китай, 20th Century Fox Film Corporation, ...
    Жанр: фантастика, боевик, приключения
    Режиссер: Тим Миллер
    Продюсер: Джеймс Кэмерон, Дэвид Эллисон, Эдвард Чэн

    Актеры
    Арнольд Шварценеггер, Эдвард Ферлонг, Линда Хэмилтон, Диего Бонета, Маккензи Дэвис, Том Хоппер, Бретт Азар, Гэбриел Луна, Наталия Рейес, Кассандра Старр

    Описание

    Сара Коннор превратилась в настоящую охотницу за терминаторами и теперь занимается уничтожением роботов-убийц из будущего. Она считала, что главное — это не дать им добраться до Джона, но теперь появилась Дани Рамос, от выживания которой также зависит судьба человечества. Вместе с ней в бой вступает и загадочная Грейс, смесь человека и машины.

    Возраст: 16+ (зрителям, достигшим 16 лет)
    Рейтинг MPAA: R (лицам до 17 лет обязательно присутствие взрослого)
    Дата мировой премьеры: 23 октября 2019
    Дата российской премьеры: 31 октября 2019, Двадцатый Век Фокс СНГ
    Релиз от: NNMClub
    Продолжительность: 02: 08: 06
    Качество видео: BDRip (CHD )
    Перевод: Дублированный (iTunes), Авторский одноголосый (Есарев)
    Субтитры: Русские (Forced, full), украинские (Forced, full), английские (Full, SDH)
    Видео: HEVC/H.265, 1920x804 (2.40: 1), 4995 Kbps, 23.976 fps
    Аудио 1: AC-3, 6 ch, 384 Kbps | Русский (DUB)
    Аудио 2: AC-3, 6 ch, 448 Kbps | Русский (AVO)
    Аудио 3: AC-3, 2 ch, 192 Kbps | Украинский (Dub iTunes)
    Аудио 4: AC-3, 6 ch, 640 Kbps | АнглийскийENCODER.........: Anonymous @ CHD
    x265 info: frame I: 2586, Avg QP: 13.03 kb/s: 21400.13
    x265 info: frame P: 50358, Avg QP: 14.39 kb/s: 9872.75
    x265 info: frame B: 131328, Avg QP: 18.59 kb/s: 2793.30
    General
    Complete name : Терминатор Темные судьбы_Terminator Dark Fate.2019.BDRip.H.265.1080p.NNMClub.mkv
    Format : Matroska
    Format version : Version 4
    File size : 5.96 GiB
    Duration : 2 h 8 min
    Overall bit rate : 6 662 kb/s
    Movie name : Терминатор Темные судьбы_Terminator Dark Fate.2019.BDRip.H.265.1080p.NNMClub
    Encoded date : UTC 2020-01-31 10: 04: 24
    Writing application : mkvmerge v40.0.0 (\'Old Town Road + Pony\') 64-bit
    Writing library : libebml v1.3.9 + libmatroska v1.5.2
    Cover : Yes
    Attachments : cover.jpg/cover.jpg
    Video
    ID : 1
    Format : HEVC
    Format/Info : High Efficiency Video Coding
    Format profile : Main 10@L4@Main
    Codec ID : V_MPEGH/ISO/HEVC
    Duration : 2 h 8 min
    Bit rate : 4 995 kb/s
    Width : 1 920 pixels
    Height : 804 pixels
    Display aspect ratio : 2.40: 1
    Frame rate mode : Constant
    Frame rate : 23.976 (23976/1000) FPS
    Color space : YUV
    Chroma subsampling : 4: 2: 0
    Bit depth : 10 bits
    Bits/(Pixel*Frame) : 0.135
    Stream size : 4.47 GiB (75%)
    Title : Terminator Dark Fate 2019 BluRay 1080p x264-CHD
    Writing library : x265 3.2+7-gb291a1c95+26: WindowsMSVC 191664 bit Yuuki 10bit
    Encoding settings : rc=crf/crf=16.0000/qcomp=0.60/qpstep=4/stats-write=0/stats-read=0/no-lossless/no-cu-lossless/aq-mode=3/aq-strength=1.00/cbqpoffs=0/crqpoffs=0/ipratio=1.40/pbratio=1.30/psy-rd=2.00/psy-rdoq=0.00/deblock=0: 0/ref=6/limit-refs=1/no-limit-modes/bframes=8/b-adapt=2/bframe-bias=0/b-pyramid/b-intra/weightp/weightb/min-keyint=23/max-keyint=250/rc-lookahead=24/gop-lookahead=0/scenecut=40/radl=0/max-cu-size=64/min-cu-size=8/me=2/subme=7/merange=48/rdoq-level=0/rd=4/rdpenalty=0/dynamic-rd=0.00/no-rd-refine/-----/cutree/sao/no-rect/no-amp/no-open-gop/wpp/no-pmode/no-pme/no-psnr/no-ssim/nr-intra=0/nr-inter=0/no-constrained-intra/no-strong-intra-smoothing/max-tu-size=32/tu-inter-depth=1/tu-intra-depth=1/limit-tu=0/qg-size=32/qpmax=69/qpmin=0/-----/cpuid=1111039/frame-threads=5/numa-pools=36, 36/log-level=2/input-csp=1/input-res=1920x804/interlace=0/level-idc=0/high-tier=1/uhd-bd=0/no-allow-non-conformance/repeat-t_heads/no-aud/no-hrd/info/hash=0/no-temporal-layers/lookahead-slices=5/no-splice/no-intra-refresh/no-ssim-rd/signhide/no-tskip/max-merge=3/temporal-mvp/no-hme/no-analyze-src-pics/no-sao-non-deblock/selective-sao=4/early-skip/rskip/no-fast-intra/no-tskip-fast/no-splitrd-skip/zone-count=0/no-strict-cbr/no-rc-grain/no-const-vbv/sar=0/overscan=0/videoformat=5/range=0/colorprim=2/transfer=2/colormatrix=2/chromaloc=0/display-window=0/cll=0, 0/min-luma=0/max-luma=1023/log2-max-poc-lsb=8/vui-timing-info/vui-hrd-info/slices=1/no-opt-qp-pps/no-opt-ref-list-length-pps/no-multi-pass-opt-rps/scenecut-bias=0.05/no-opt-cu-delta-qp/aq-motion/no-hdr/no-hdr-opt/no-dhdr10-opt/no-idr-recovery-sei/analysis-reuse-level=5/scale-factor=0/refine-intra=0/refine-inter=0/refine-mv=1/refine-ctu-distortion=0/no-limit-sao/ctu-info=0/no-lowpass-dct/refine-analysis-type=0/copy-pic=1/max-ausize-factor=1.0/no-dynamic-refine/no-single-sei/no-hevc-aq/no-svt/no-field/qp-adaptation-range=1.00
    Language : English
    Default : Yes
    Forced : No
    Audio #1
    ID : 2
    Format : AC-3
    Format/Info : Audio Coding 3
    Commercial name : Dolby Digital
    Codec ID : A_AC3
    Duration : 2 h 8 min
    Bit rate mode : Constant
    Bit rate : 384 kb/s
    Channel(s) : 6 channels
    Channel layout : L R C LFE Ls Rs
    Sampling rate : 48.0 kHz
    Frame rate : 31.250 FPS (1536 SPF)
    Compression mode : Lossy
    Stream size : 352 MiB (6%)
    Title : Дублированный (iTunes)
    Language : Russian
    Service kind : Complete Main
    Default : Yes
    Forced : No
    Audio #2
    ID : 3
    Format : AC-3
    Format/Info : Audio Coding 3
    Commercial name : Dolby Digital
    Codec ID : A_AC3
    Duration : 2 h 8 min
    Bit rate mode : Constant
    Bit rate : 448 kb/s
    Channel(s) : 6 channels
    Channel layout : L R C LFE Ls Rs
    Sampling rate : 48.0 kHz
    Frame rate : 31.250 FPS (1536 SPF)
    Compression mode : Lossy
    Stream size : 410 MiB (7%)
    Title : AVO - Есарев
    Language : Russian
    Service kind : Complete Main
    Default : No
    Forced : No
    Audio #3
    ID : 4
    Format : AC-3
    Format/Info : Audio Coding 3
    Commercial name : Dolby Digital
    Codec ID : A_AC3
    Duration : 2 h 8 min
    Bit rate mode : Constant
    Bit rate : 192 kb/s
    Channel(s) : 2 channels
    Channel layout : L R
    Sampling rate : 48.0 kHz
    Frame rate : 31.250 FPS (1536 SPF)
    Compression mode : Lossy
    Stream size : 176 MiB (3%)
    Title : Дублированный (iTunes)
    Language : Ukrainian
    Service kind : Complete Main
    Default : No
    Forced : No
    Audio #4
    ID : 5
    Format : AC-3
    Format/Info : Audio Coding 3
    Commercial name : Dolby Digital
    Codec ID : A_AC3
    Duration : 2 h 8 min
    Bit rate mode : Constant
    Bit rate : 640 kb/s
    Channel(s) : 6 channels
    Channel layout : L R C LFE Ls Rs
    Sampling rate : 48.0 kHz
    Frame rate : 31.250 FPS (1536 SPF)
    Compression mode : Lossy
    Stream size : 586 MiB (10%)
    Title : Original
    Language : English
    Service kind : Complete Main
    Default : No
    Forced : No
    Text #1
    ID : 6
    Format : UTF-8
    Codec ID : S_TEXT/UTF8
    Codec ID/Info : UTF-8 Plain Text
    Duration : 2 h 4 min
    Bit rate : 4 b/s
    Count of elements : 143
    Stream size : 4.36 KiB (0%)
    Title : Russian forced iTunes
    Language : Russian
    Default : Yes
    Forced : No
    Text #2
    ID : 7
    Format : UTF-8
    Codec ID : S_TEXT/UTF8
    Codec ID/Info : UTF-8 Plain Text
    Duration : 2 h 7 min
    Bit rate : 49 b/s
    Count of elements : 1250
    Stream size : 46.2 KiB (0%)
    Title : Russian fulli Tunes
    Language : Russian
    Default : No
    Forced : No
    Text #3
    ID : 8
    Format : UTF-8
    Codec ID : S_TEXT/UTF8
    Codec ID/Info : UTF-8 Plain Text
    Duration : 1 h 57 min
    Bit rate : 61 b/s
    Count of elements : 1178
    Stream size : 53.4 KiB (0%)
    Title : Russian full Enigma
    Language : Russian
    Default : No
    Forced : No
    Text #4
    ID : 9
    Format : UTF-8
    Codec ID : S_TEXT/UTF8
    Codec ID/Info : UTF-8 Plain Text
    Duration : 2 h 7 min
    Bit rate : 50 b/s
    Count of elements : 1250
    Stream size : 46.8 KiB (0%)
    Title : Russian full Fadeev, Levina
    Language : Russian
    Default : No
    Forced : No
    Text #5
    ID : 10
    Format : UTF-8
    Codec ID : S_TEXT/UTF8
    Codec ID/Info : UTF-8 Plain Text
    Duration : 2 h 4 min
    Bit rate : 4 b/s
    Count of elements : 139
    Stream size : 4.42 KiB (0%)
    Title : Ukrainian forced iTunes
    Language : Ukrainian
    Default : No
    Forced : No
    Text #6
    ID : 11
    Format : UTF-8
    Codec ID : S_TEXT/UTF8
    Codec ID/Info : UTF-8 Plain Text
    Duration : 2 h 7 min
    Bit rate : 50 b/s
    Count of elements : 1239
    Stream size : 47.1 KiB (0%)
    Title : Ukrainian full iTunes
    Language : Ukrainian
    Default : No
    Forced : No
    Text #7
    ID : 12
    Format : UTF-8
    Codec ID : S_TEXT/UTF8
    Codec ID/Info : UTF-8 Plain Text
    Duration : 1 h 57 min
    Bit rate : 31 b/s
    Count of elements : 1078
    Stream size : 27.2 KiB (0%)
    Title : English full
    Language : English
    Default : No
    Forced : No
    Text #8
    ID : 13
    Format : UTF-8
    Codec ID : S_TEXT/UTF8
    Codec ID/Info : UTF-8 Plain Text
    Duration : 1 h 57 min
    Bit rate : 39 b/s
    Count of elements : 1388
    Stream size : 34.3 KiB (0%)
    Title : English SDH
    Language : English
    Default : No
    Forced : No
    Menu
    00: 00: 00.000 : en: Глава 01
    00: 04: 19.843 : en: Глава 02
    00: 07: 48.927 : en: Глава 03
    00: 11: 47.916 : en: Глава 04
    00: 16: 56.349 : en: Глава 05
    00: 22: 10.663 : en: Глава 06
    00: 29: 00.614 : en: Глава 07
    00: 33: 25.754 : en: Глава 08
    00: 41: 35.493 : en: Глава 09
    00: 47: 02.695 : en: Глава 10
    00: 53: 08.936 : en: Глава 11
    00: 57: 56.807 : en: Глава 12
    01: 05: 02.690 : en: Глава 13
    01: 13: 07.967 : en: Глава 14
    01: 20: 45.591 : en: Глава 15
    01: 27: 29.744 : en: Глава 16
    01: 32: 48.688 : en: Глава 17
    01: 41: 45.850 : en: Глава 18
    01: 49: 35.319 : en: Глава 19
    01: 57: 58.613 : en: Глава 20


    Онлайн видео Терминатор: Тёмные судьбы


    Терминатор: Тёмные судьбы/Terminator: Dark Fate (2019) BDRip [H.265/1080p] [10-bit]

    Терминатор: Тёмные судьбы / Terminator: Dark Fate (2019) BDRip [H.265 / 1080p] [10-bit] торрент скачать бесплатно
    Рейтинг →
     (голосов: 1, оценка 3/5, голосовать можно 1 раз )

    Другие торренты по теме:

  • Терминатор: Тёмные судьбы / Terminator: Dark Fate (2019) WEB-DLRip [H.264 / 1080p-LQ] [Line, AD]
  • Терминатор: Тёмные судьбы / Terminator: Dark Fate (2019) WEB-DLRip [Line] [AD]
  • Терминатор: Тёмные судьбы / Terminator: Dark Fate (2019) WEBRip [H.264 / 720p-LQ] [Line, AD]
  • Терминатор: Тёмные судьбы / Terminator: Dark Fate (2019) WEBRip [H.264 / 1080p] [EN / EN Sub]
  • Терминатор: Тёмные судьбы / Terminator: Dark Fate (2019) UHD BDRemux [H.265 / 2160p] [4K, HDR, 10-bit]
  • Терминатор: Тёмные судьбы / Terminator: Dark Fate (2019) AC3 5.1 [hand made]
  • Терминатор: Тёмные судьбы / Terminator: Dark Fate (2019) WEBRip [H.264 / 2160p] [4K, SDR, 8-bit] [MVO]
  • Терминатор: Тёмные судьбы / Terminator: Dark Fate (2019) BDRip [H.264 / 720p] [MVO] [PR]


    • Комментарии (0):

      Информация

      Информация

        Посетители, находящиеся в группе Гости, не могут оставлять комментарии в данной новости.

        ↓ Меню




        ↓ Опрос

        Вы добавили сайт в закладки?
        Да
        Нет


        Популярное