.
Авторизация | Регистрация
bitok.xyz
Торрент скачать бесплатно Фильмы торрент скачать Терминатор: Тёмные судьбы / Terminator: Dark Fate (2019) UHD BDRip [H.265 / 2160p] [4K, HDR, 10-bit] торрент скачать бесплатно


    Терминатор: Тёмные судьбы / Terminator: Dark Fate (2019) UHD BDRip [H.265 / 2160p] [4K, HDR, 10-bit] торрент скачать бесплатно

    Дата: 1-02-2020, 05:00 | .torrent скачали: 0

    Терминатор: Тёмные судьбы / Terminator: Dark Fate (2019) UHD BDRip [H.265 / 2160p] [4K, HDR, 10-bit]Производство: США, Китай, Paramount Pictures, Twentieth Century Fox, Skydance Media
    Жанр: Фантастика, боевик, приключения
    Режиссер: Тим Миллер
    Продюсер: Джеймс Кэмерон, Дэвид Эллисон, Эдвард Чэн

    Актеры
    Линда Хэмилтон, Арнольд Шварценеггер, Маккензи Дэвис, Наталия Рейес, Гэбриел Луна, Диего Бонета, Алисия Боррачеро, Энрике Арсе, Стивен Кри, Ферран Фернандес

    Описание
    Мексика. Милая девушка Даниэла Рамос, а для друзей просто Дани, вместе с братом приходит с утра работать на завод, но там выясняется, что их вскоре заменят автоматикой. И это не единственная угроза, которую представляют для девушки машины: тут же на неё нападает присланная из будущего и практически неубиваемая модель терминатора REV-9. Но на защиту Дани встает Грэйс — тоже прибывшая из будущего женщина, модифицировавшая свои боевые характеристики до терминаторского уровня. Вскоре к ним на помощь придёт и Сара Коннор, которая теперь превратилась в настоящую охотницу на роботов-убийц.

    Возраст: 16+ Зрителям, достигшим 16 лет
    Рейтинг MPAA: R Лицам до 17 обязательно присутствие взрослых
    Дата мировой премьеры: 23 октября 2019
    Дата российской премьеры: 31 октября 2019, Двадцатый Век Фокс СНГ
    Цифровой релиз: 31 января 2020, Двадцатый Век Фокс СНГ
    Продолжительность: 02: 08: 06
    Качество видео: UHD BDRip 2160p
    Перевод: Дублированный (iTunes)
    Субтитры: Русские (Forced, full), английские (Full, SDH, SDH Colored)
    Видео: HEVC/H.265, 3840x1608, 18.6 Mbps
    Аудио 1 : AC3, 6 ch, 384 Kbps, Русский (Dub iTunes)
    Аудио 2 : AC3, 6 ch, 640 Kbps, Английский
    Диск на Blu-ray.com
    Просмотр 4K HDR-контента на ПК
    Общее
    Уникальный идентификатор : 197106970183874191257378210240458390740 (0x94496BEECB406A5CB3B19F0DDFB3FCD4)
    Полное имя : D: FILMSZALIVTerminator.Dark.Fate.2019.BDRip.2160p.HDR.mkv
    Формат : Matroska
    Версия формата : Version 4
    Размер файла : 17, 5 Гбайт
    Продолжительность : 2 ч. 8 м.
    Общий поток : 19, 6 Мбит/сек
    Название фильма : Terminator: Dark Fate (2019) from селезень
    Дата кодирования : UTC 2020-01-31 05: 16: 59
    Программа кодирования : mkvmerge v8.2.0 (\'World of Adventure\') 64bit
    Библиотека кодирования : libebml v1.3.1 + libmatroska v1.4.2
    Обложка : Yes
    Attachments : cover.jpg/cover.jpg
    Видео
    Идентификатор : 1
    Формат : HEVC
    Формат/Информация : High Efficiency Video Coding
    Профиль формата : Main 10@L5@Main
    HDR_Format/String : SMPTE ST 2086, HDR10 compatible
    Идентификатор кодека : V_MPEGH/ISO/HEVC
    Продолжительность : 2 ч. 8 м.
    Битрейт : 18, 6 Мбит/сек
    Ширина : 3840 пикселей
    Высота : 1608 пикселей
    Соотношение сторон : 2, 40: 1
    Режим частоты кадров : Постоянный
    Частота кадров : 23, 976 (23976/1000) кадра/сек
    Цветовое пространство : YUV
    Субдискретизация насыщенности : 4: 2: 0
    Битовая глубина : 10 бит
    Бит/(Пиксели*Кадры) : 0.125
    Размер потока : 16, 6 Гбайт (95%)
    Заголовок : CHD
    Библиотека кодирования : x265 3.2+7-gb291a1c95+26: WindowsMSVC 191664 bit Yuuki 10bit
    Настройки программы : rc=crf/crf=16.0000/qcomp=0.82/qpstep=4/stats-write=0/stats-read=0/no-lossless/no-cu-lossless/aq-mode=1/aq-strength=1.00/cbqpoffs=0/crqpoffs=0/ipratio=1.40/pbratio=1.30/psy-rd=1.10/psy-rdoq=0.00/deblock=-1: -1/ref=4/limit-refs=1/no-limit-modes/bframes=14/b-adapt=2/bframe-bias=0/b-pyramid/b-intra/weightp/weightb/min-keyint=23/max-keyint=250/rc-lookahead=24/gop-lookahead=0/scenecut=40/radl=0/max-cu-size=64/min-cu-size=8/me=3/subme=7/merange=64/rdoq-level=0/rd=5/rdpenalty=0/dynamic-rd=0.00/no-rd-refine/-----/cutree/sao/no-rect/no-amp/no-open-gop/wpp/no-pmode/pme/no-psnr/no-ssim/nr-intra=0/nr-inter=0/no-constrained-intra/no-strong-intra-smoothing/max-tu-size=32/tu-inter-depth=1/tu-intra-depth=1/limit-tu=0/qg-size=32/qpmax=69/qpmin=0/-----/cpuid=1111039/frame-threads=5/numa-pools=36, 36/log-level=2/input-csp=1/input-res=3840x1608/interlace=0/level-idc=0/high-tier=1/uhd-bd=0/no-allow-non-conformance/repeat-t_heads/no-aud/no-hrd/info/hash=0/no-temporal-layers/lookahead-slices=8/no-splice/no-intra-refresh/no-ssim-rd/signhide/no-tskip/max-merge=3/temporal-mvp/no-hme/no-analyze-src-pics/no-sao-non-deblock/selective-sao=4/early-skip/rskip/no-fast-intra/no-tskip-fast/no-splitrd-skip/zone-count=0/no-strict-cbr/no-rc-grain/no-const-vbv/sar=0/overscan=0/videoformat=5/range=0/colorprim=9/transfer=16/colormatrix=9/chromaloc=0/display-window=0/master-display=G(13250, 34500)B(7500, 3000)R(34000, 16000)WP(15635, 16450)L(10000000, 1)/cll=1000, 446/min-luma=0/max-luma=1023/log2-max-poc-lsb=8/vui-timing-info/vui-hrd-info/slices=1/no-opt-qp-pps/no-opt-ref-list-length-pps/no-multi-pass-opt-rps/scenecut-bias=0.05/no-opt-cu-delta-qp/aq-motion/hdr/hdr-opt/no-dhdr10-opt/no-idr-recovery-sei/analysis-reuse-level=5/scale-factor=0/refine-intra=0/refine-inter=0/refine-mv=1/refine-ctu-distortion=0/no-limit-sao/ctu-info=0/no-lowpass-dct/refine-analysis-type=0/copy-pic=1/max-ausize-factor=1.0/no-dynamic-refine/no-single-sei/no-hevc-aq/no-svt/no-field/qp-adaptation-range=1.00
    Язык : English
    Default : Да
    Forced : Нет
    Цветовой диапазон : Limited
    Основные цвета : BT.2020
    Характеристики трансфера : PQ
    Коэффициенты матрицы : BT.2020 non-constant
    MasteringDisplay_ColorPrimaries : Display P3
    MasteringDisplay_Luminance : min: 0.0001 cd/m2, max: 1000 cd/m2
    MaxCLL : 1000 cd/m2
    MaxFALL : 446 cd/m2
    Аудио #1
    Идентификатор : 2
    Формат : AC-3
    Формат/Информация : Audio Coding 3
    Коммерческое название : Dolby Digital
    Идентификатор кодека : A_AC3
    Продолжительность : 2 ч. 8 м.
    Вид битрейта : Постоянный
    Битрейт : 384 Кбит/сек
    Каналы : 6 каналов
    ChannelLayout : L R C LFE Ls Rs
    Частота : 48, 0 КГц
    Частота кадров : 31, 250 кадров/сек (1536 SPF)
    Метод сжатия : С потерями
    Размер потока : 352 Мбайт (2%)
    Заголовок : iTunes
    Язык : Russian
    ServiceKind/String : Complete Main
    Default : Да
    Forced : Да
    Аудио #2
    Идентификатор : 3
    Формат : AC-3
    Формат/Информация : Audio Coding 3
    Коммерческое название : Dolby Digital
    Идентификатор кодека : A_AC3
    Продолжительность : 2 ч. 8 м.
    Вид битрейта : Постоянный
    Битрейт : 640 Кбит/сек
    Каналы : 6 каналов
    ChannelLayout : L R C LFE Ls Rs
    Частота : 48, 0 КГц
    Частота кадров : 31, 250 кадров/сек (1536 SPF)
    Метод сжатия : С потерями
    Размер потока : 586 Мбайт (3%)
    Язык : English
    ServiceKind/String : Complete Main
    Default : Нет
    Forced : Нет
    Текст #1
    Идентификатор : 4
    Формат : UTF-8
    Идентификатор кодека : S_TEXT/UTF8
    Идентификатор кодека/Информация : UTF-8 Plain Text
    Продолжительность : 2 ч. 4 м.
    Битрейт : 4 бит/сек
    ElementCount : 143
    Размер потока : 4, 36 Кбайт (0%)
    Заголовок : Forced iTunes
    Язык : Russian
    Default : Да
    Forced : Да
    Текст #2
    Идентификатор : 5
    Формат : UTF-8
    Идентификатор кодека : S_TEXT/UTF8
    Идентификатор кодека/Информация : UTF-8 Plain Text
    Продолжительность : 2 ч. 7 м.
    Битрейт : 49 бит/сек
    ElementCount : 1250
    Размер потока : 46, 2 Кбайт (0%)
    Заголовок : Full iTunes
    Язык : Russian
    Default : Нет
    Forced : Нет
    Текст #3
    Идентификатор : 6
    Формат : UTF-8
    Идентификатор кодека : S_TEXT/UTF8
    Идентификатор кодека/Информация : UTF-8 Plain Text
    Продолжительность : 1 ч. 57 м.
    Битрейт : 31 бит/сек
    ElementCount : 1078
    Размер потока : 27, 2 Кбайт (0%)
    Заголовок : Full
    Язык : English
    Default : Нет
    Forced : Нет
    Текст #4
    Идентификатор : 7
    Формат : UTF-8
    Идентификатор кодека : S_TEXT/UTF8
    Идентификатор кодека/Информация : UTF-8 Plain Text
    Продолжительность : 1 ч. 57 м.
    Битрейт : 39 бит/сек
    ElementCount : 1388
    Размер потока : 34, 3 Кбайт (0%)
    Заголовок : SDH
    Язык : English
    Default : Нет
    Forced : Нет
    Текст #5
    Идентификатор : 8
    Формат : UTF-8
    Идентификатор кодека : S_TEXT/UTF8
    Идентификатор кодека/Информация : UTF-8 Plain Text
    Продолжительность : 1 ч. 57 м.
    Битрейт : 68 бит/сек
    ElementCount : 1388
    Размер потока : 58, 6 Кбайт (0%)
    Заголовок : SDH Colored
    Язык : English
    Default : Нет
    Forced : Нет
    Меню
    00: 00: 00.000 : en: Глава 01
    00: 04: 19.843 : en: Глава 02
    00: 07: 48.927 : en: Глава 03
    00: 11: 47.916 : en: Глава 04
    00: 16: 56.349 : en: Глава 05
    00: 22: 10.663 : en: Глава 06
    00: 29: 00.614 : en: Глава 07
    00: 33: 25.754 : en: Глава 08
    00: 41: 35.493 : en: Глава 09
    00: 47: 02.695 : en: Глава 10
    00: 53: 08.936 : en: Глава 11
    00: 57: 56.807 : en: Глава 12
    01: 05: 02.690 : en: Глава 13
    01: 13: 07.967 : en: Глава 14
    01: 20: 45.591 : en: Глава 15
    01: 27: 29.744 : en: Глава 16
    01: 32: 48.688 : en: Глава 17
    01: 41: 45.850 : en: Глава 18
    01: 49: 35.319 : en: Глава 19
    01: 57: 58.613 : en: Глава 20

    Скриншоты для ознакомления



    Все одноименные релизы в Клубе
    Время раздачи: 24/7 (круглосуточно) (до появления первых 3-5 скачавших)

    Онлайн видео Терминатор: Тёмные судьбы


    Терминатор: Тёмные судьбы/Terminator: Dark Fate (2019) UHD BDRip [H.265/2160p] [4K, HDR, 10-bit]

    Терминатор: Тёмные судьбы / Terminator: Dark Fate (2019) UHD BDRip [H.265 / 2160p] [4K, HDR, 10-bit] торрент скачать бесплатно
    Рейтинг →
     (голосов: 1, оценка 3/5, голосовать можно 1 раз )

    Другие торренты по теме:

  • Терминатор: Тёмные судьбы / Terminator: Dark Fate (2019) WEB-DLRip [H.264 / 1080p-LQ] [Line, AD]
  • Терминатор: Тёмные судьбы / Terminator: Dark Fate (2019) WEB-DLRip [Line] [AD]
  • Терминатор: Тёмные судьбы / Terminator: Dark Fate (2019) WEBRip [H.264 / 720p-LQ] [Line, AD]
  • Терминатор: Тёмные судьбы / Terminator: Dark Fate (2019) WEBRip [H.264 / 1080p] [EN / EN Sub]
  • Терминатор: Тёмные судьбы / Terminator: Dark Fate (2019) UHD BDRemux [H.265 / 2160p] [4K, HDR, 10-bit]
  • Терминатор: Тёмные судьбы / Terminator: Dark Fate (2019) AC3 5.1 [hand made]
  • Терминатор: Тёмные судьбы / Terminator: Dark Fate (2019) WEBRip [H.264 / 2160p] [4K, SDR, 8-bit] [MVO]
  • Терминатор: Тёмные судьбы / Terminator: Dark Fate (2019) BDRip [H.264 / 720p] [MVO] [PR]


    • Комментарии (0):

      Информация

      Информация

        Посетители, находящиеся в группе Гости, не могут оставлять комментарии в данной новости.

        ↓ Меню




        ↓ Опрос

        Вы добавили сайт в закладки?
        Да
        Нет


        Популярное