.
Авторизация | Регистрация
bitok.xyz
Торрент скачать бесплатно Фильмы торрент скачать Няня / The Turning (2020) CamRip [MVO] [AD] торрент скачать бесплатно


    Няня / The Turning (2020) CamRip [MVO] [AD] торрент скачать бесплатно

    Дата: 1-02-2020, 05:00 | .torrent скачали: 0

    Няня / The Turning (2020) CamRip [MVO] [AD]Производство: Великобритания, Ирландия, Канада, США/Amblin Entertainment, Vertigo Entertainment
    Жанр: ужасы, драма, детектив
    Режиссер: Флория Сиджизмонди
    Продюсер: Скотт Бернштейн, Рой Ли, Джо Хоумвуд

    Актеры
    Маккензи Дэвис, Финн Вулфард, Бруклин Принс, Барбара Мартен, Джоэли Ричардсон, Ниал Грег Фултон, Денна Томсен, Ким Адис, Darlene Garr, Карен Иган

    Описание

    Согласно местным легендам в таинственном особняке, который расположен в штате Мэн, живут привидения. Именно в это место и прибыла Кейт, дабы присмотреть там за двумя сиротами - Флорой и Майлзом. Достаточно быстро няня поймет, что не только этот дом, но и дети, всё здесь скрывает в себе огромное количество страшных секретов.

    Рейтинг MPAA: PG-13 (детям до 13 лет просмотр нежелателен)
    Дата мировой премьеры: 23 января 2020
    Дата российской премьеры: 30 апреля 2020
    Продолжительность: 01: 31: 25
    Качество видео: CamRip
    Перевод: Многоголосый любительский (КОЛОБОК)
    Субтитры: Отсутствуют
    Реклама: Присутствуют вставки голосовой и баннерной рекламы
    Видео: Xvid, 720x304, ~1747 Kbps
    Аудио: AC3, 2 ch, 384 Kbps - Русский (MVO)
    General
    Complete name : H: ФильмыThe.Turning.2020.Pk.TS.14OOMB.avi
    Format : AVI
    Format/Info : Audio Video Interleave
    File size : 1.37 GiB
    Duration : 1 h 31 min
    Overall bit rate : 2 140 kb/s
    Writing application : VirtualDubMod 1.5.10.3 |www.virtualdub-fr.org|| (build 2550/release)
    Writing library : VirtualDubMod build 2550/release
    Video
    ID : 0
    Format : MPEG-4 Visual
    Format profile : Advanced Simple@L5
    Format settings : BVOP2/Custom Matrix
    Format settings, BVOP : 2
    Format settings, QPel : No
    Format settings, GMC : No warppoints
    Format settings, Matrix : Custom
    Codec ID : XVID
    Codec ID/Hint : XviD
    Duration : 1 h 31 min
    Bit rate : 1 747 kb/s
    Width : 720 pixels
    Height : 304 pixels
    Display aspect ratio : 2.35: 1
    Frame rate : 23.976 (24000/1001) FPS
    Color space : YUV
    Chroma subsampling : 4: 2: 0
    Bit depth : 8 bits
    Scan type : Progressive
    Compression mode : Lossy
    Bits/(Pixel*Frame) : 0.333
    Stream size : 1.12 GiB (82%)
    Writing library : XviD 1.2.1 (UTC 2008-12-04)
    Audio
    ID : 1
    Format : AC-3
    Format/Info : Audio Coding 3
    Commercial name : Dolby Digital
    Codec ID : 2000
    Duration : 1 h 31 min
    Bit rate mode : Constant
    Bit rate : 384 kb/s
    Channel(s) : 2 channels
    Channel layout : L R
    Sampling rate : 48.0 kHz
    Frame rate : 31.250 FPS (1536 SPF)
    Compression mode : Lossy
    Stream size : 251 MiB (18%)
    Alignment : Split across interleaves
    Interleave, duration : 42 ms (1.00 video frame)
    Interleave, preload duratio : 500 ms
    Service kind : Complete Main

    Скриншоты для ознакомления



    Все одноименные релизы в Клубе
    Время раздачи: c 7: 00 до 23: 00 МСК (до появления первых 3-5 скачавших)

    Онлайн видео Няня


    Няня/The Turning (2020) CamRip [MVO] [AD]

    Няня / The Turning (2020) CamRip [MVO] [AD] торрент скачать бесплатно
    Рейтинг →
     (голосов: 1, оценка 5/5, голосовать можно 1 раз )

    Другие торренты по теме:

  • Профессия репортер. Моя ужасная няня (2014.12.14) SATRip скачать через торрент бесплатно
  • Нереальные аферисты. Няня на дом (2016) SATRip
  • Злая няня / Evil Nanny (2016) WEB-DLRip [AD]
  • Няня / The Nanny (1993-1999) DVDRip (сезон 1-6, серии 1-144 из 144) ДТВ
  • Няня / The Babysitter (2017) WEB-DLRip [MVO] [AD]
  • Приходящая няня / La baby sitter (1975) DVDRip [H.264] [AVO]
  • Коварная няня / The Au Pair (2018) HDTVRip [MVO] [AD]
  • Няня / The Babysitter (2017) WEBRip [H.264 / 1080p] [MVO]


    • Комментарии (0):

      Информация

      Информация

        Посетители, находящиеся в группе Гости, не могут оставлять комментарии в данной новости.

        ↓ Меню




        ↓ Опрос

        Вы добавили сайт в закладки?
        Да
        Нет


        Популярное