.
Авторизация | Регистрация
bitok.xyz
Торрент скачать бесплатно Фильмы торрент скачать Хороший лжец / The Good Liar (2019) BDRip [H.264] торрент скачать бесплатно


    Хороший лжец / The Good Liar (2019) BDRip [H.264] торрент скачать бесплатно

    Дата: 1-02-2020, 05:00 | .torrent скачали: 0

    Хороший лжец / The Good Liar (2019) BDRip [H.264]Производство: Великобритания, США, Германия | Bron Studios, New Line Cinema
    Жанр: драма, детектив
    Режиссер: Билл Кондон

    Актеры
    Хелен Миррен, Иэн МакКеллен, Рассел Тови, Джим Картер, Марк Льюис Джонс, Лори Дэвидсон, Фил Данстер, Лусиан Мсамати, Йоуханнес Хёйкьюр Йоуханнессон, Тунджи Касим

    Описание

    Профессиональный мошенник Рой Кортни едва верит своей удаче, когда знакомится в сети с богатой вдовой Бетти Маклиш. Очаровав вдову и получив доступ ко всем ее ресурсам, Рой ловит себя на том, что она ему небезразлична.

    Возраст: 18+ (зрителям, достигшим 18 лет. запрещено для детей)
    Рейтинг MPAA: R (лицам до 17 лет обязательно присутствие взрослого)
    Дата мировой премьеры: 8 ноября 2019
    Дата российской премьеры: 14 ноября 2019, Каро-Премьер
    Цифровой релиз: 31 января 2020, Warner Bros.
    Продолжительность: 01: 49: 37
    Качество видео: BDRip
    Перевод: Дублированный (iTunes)
    Субтитры: Русские (forced, full), английские (full, SDH)
    Видео: AVC/H.264, 1024x430 (2.40: 1), ~1948 kbps
    Аудио 1: AC3, 6 ch, 384 kbps - русский
    Аудио 2: AC3, 6 ch, 384 kbps - английский
    General
    Unique ID : 211146137975745532934597640416233531401 (0x9ED94458997749F0E35B1133855C2809)
    Complete name : D: The_Good_Liar_2019_BDRip_AVC.mkv
    Format : Matroska
    Format version : Version 4
    File size : 2.08 GiB
    Duration : 1 h 49 min
    Overall bit rate : 2 712 kb/s
    Encoded date : UTC 2020-01-31 05: 57: 36
    Writing application : mkvmerge v43.0.0 (\'The Quartermaster\') 64-bit
    Writing library : libebml v1.3.10 + libmatroska v1.5.2
    Video
    ID : 1
    Format : AVC
    Format/Info : Advanced Video Codec
    Format profile : High@L4.1
    Format settings : CABAC/9 Ref Frames
    Format settings, CABAC : Yes
    Format settings, ReFrames : 9 frames
    Codec ID : V_MPEG4/ISO/AVC
    Duration : 1 h 49 min
    Bit rate : 1 948 kb/s
    Width : 1 024 pixels
    Height : 430 pixels
    Display aspect ratio : 2.40: 1
    Frame rate mode : Constant
    Frame rate : 23.976 (23976/1000) FPS
    Color space : YUV
    Chroma subsampling : 4: 2: 0
    Bit depth : 8 bits
    Scan type : Progressive
    Bits/(Pixel*Frame) : 0.185
    Stream size : 1.49 GiB (72%)
    Title : H.264/AVC
    Writing library : x264 core 152 r2851bm ba24899
    Encoding settings : cabac=1/ref=9/deblock=1: -3: -3/analyse=0x3: 0x113/me=umh/subme=11/psy=1/psy_rd=1.00: 0.15/mixed_ref=1/me_range=32/chroma_me=1/trellis=2/8x8dct=1/cqm=0/deadzone=21, 11/fast_pskip=0/chroma_qp_offset=-3/threads=8/lookahead_threads=3/sliced_threads=0/nr=0/decimate=0/interlaced=0/bluray_compat=0/constrained_intra=0/bframes=10/b_pyramid=2/b_adapt=2/b_bias=0/direct=3/weightb=1/open_gop=0/weightp=2/keyint=240/keyint_min=23/scenecut=40/intra_refresh=0/rc=2pass/mbtree=0/bitrate=1948/ratetol=1.0/qcomp=0.60/qpmin=0/qpmax=69/qpstep=4/cplxblur=20.0/qblur=0.5/ip_ratio=1.40/pb_ratio=1.30/aq=1: 1.00
    Language : English
    Default : Yes
    Forced : No
    Audio #1
    ID : 2
    Format : AC-3
    Format/Info : Audio Coding 3
    Commercial name : Dolby Digital
    Codec ID : A_AC3
    Duration : 1 h 49 min
    Bit rate mode : Constant
    Bit rate : 384 kb/s
    Channel(s) : 6 channels
    Channel layout : L R C LFE Ls Rs
    Sampling rate : 48.0 kHz
    Frame rate : 31.250 FPS (1536 SPF)
    Bit depth : 16 bits
    Compression mode : Lossy
    Stream size : 301 MiB (14%)
    Title : iTunes
    Language : Russian
    Service kind : Complete Main
    Default : Yes
    Forced : No
    Audio #2
    ID : 3
    Format : AC-3
    Format/Info : Audio Coding 3
    Commercial name : Dolby Digital
    Codec ID : A_AC3
    Duration : 1 h 49 min
    Bit rate mode : Constant
    Bit rate : 384 kb/s
    Channel(s) : 6 channels
    Channel layout : L R C LFE Ls Rs
    Sampling rate : 48.0 kHz
    Frame rate : 31.250 FPS (1536 SPF)
    Bit depth : 16 bits
    Compression mode : Lossy
    Stream size : 301 MiB (14%)
    Title : Original
    Language : English
    Service kind : Complete Main
    Default : No
    Forced : No
    Text #1
    ID : 4
    Format : UTF-8
    Codec ID : S_TEXT/UTF8
    Codec ID/Info : UTF-8 Plain Text
    Duration : 1 h 40 min
    Bit rate : 1 b/s
    Count of elements : 32
    Stream size : 1.12 KiB (0%)
    Title : Forced
    Language : Russian
    Default : Yes
    Forced : No
    Text #2
    ID : 5
    Format : UTF-8
    Codec ID : S_TEXT/UTF8
    Codec ID/Info : UTF-8 Plain Text
    Duration : 1 h 48 min
    Bit rate : 88 b/s
    Count of elements : 1200
    Stream size : 70.3 KiB (0%)
    Title : Full
    Language : Russian
    Default : No
    Forced : No
    Text #3
    ID : 6
    Format : UTF-8
    Codec ID : S_TEXT/UTF8
    Codec ID/Info : UTF-8 Plain Text
    Duration : 1 h 41 min
    Bit rate : 54 b/s
    Count of elements : 1374
    Stream size : 40.8 KiB (0%)
    Title : Full
    Language : English
    Default : No
    Forced : No
    Text #4
    ID : 7
    Format : UTF-8
    Codec ID : S_TEXT/UTF8
    Codec ID/Info : UTF-8 Plain Text
    Duration : 1 h 43 min
    Bit rate : 59 b/s
    Count of elements : 1544
    Stream size : 45.3 KiB (0%)
    Title : SDH
    Language : English
    Default : No
    Forced : No
    Menu
    00: 00: 00.000 : en: 00: 00: 00.000
    00: 07: 26.029 : en: 00: 07: 26.029
    00: 17: 30.091 : en: 00: 17: 30.091
    00: 26: 54.112 : en: 00: 26: 54.112
    00: 34: 31.653 : en: 00: 34: 31.653
    00: 43: 15.843 : en: 00: 43: 15.843
    00: 52: 14.340 : en: 00: 52: 14.340
    01: 00: 50.772 : en: 01: 00: 50.772
    01: 08: 18.177 : en: 01: 08: 18.177
    01: 17: 54.712 : en: 01: 17: 54.712
    01: 27: 05.720 : en: 01: 27: 05.720
    01: 36: 41.838 : en: 01: 36: 41.838
    01: 45: 10.179 : en: 01: 45: 10.179

    Скриншоты для ознакомления



    Все одноименные релизы в Клубе
    Время раздачи: 24/7 (до появления первых 3-5 скачавших)

    Онлайн видео Хороший лжец


    Хороший лжец/The Good Liar (2019) BDRip [H.264]

    Хороший лжец / The Good Liar (2019) BDRip [H.264] торрент скачать бесплатно
    Рейтинг →
     (голосов: 1, оценка 4/5, голосовать можно 1 раз )

    Другие торренты по теме:

  • Хороший лжец / The Good Liar (2019) HDRip [AVO]
  • Хороший лжец / The Good Liar (2019) BDRip [H.264 / 1080p] [AVO] [PR]
  • Хороший лжец / The Good Liar (2019) BDRip [H.264 / 1080p] [PR]
  • Хороший лжец / The Good Liar (2019) BDRip [H.265 / 720p] [10-bit] [PR]
  • Хороший лжец / The Good Liar (2019) BDRip [H.265] [10-bit]
  • Хороший лжец / The Good Liar (2019) BDRemux [H.264 / 1080p]
  • Хороший лжец / The Good Liar (2019) BDRip [H.264 / 1080p]
  • Хороший лжец / The Good Liar (2019) BDRip [H.264 / 720p]


    • Комментарии (0):

      Информация

      Информация

        Посетители, находящиеся в группе Гости, не могут оставлять комментарии в данной новости.

        ↓ Меню




        ↓ Опрос

        Вы добавили сайт в закладки?
        Да
        Нет


        Популярное