.
Авторизация | Регистрация
bitok.xyz
Торрент скачать бесплатно Фильмы торрент скачать Терминатор: Тёмные судьбы / Terminator: Dark Fate (2019) BDRip [H.264 / 1080p-LQ] торрент скачать бесплатно

    Терминатор: Тёмные судьбы / Terminator: Dark Fate (2019) BDRip [H.264 / 1080p-LQ] торрент скачать бесплатно

    Дата: 1-02-2020, 05:00 | .torrent скачали: 0

    Терминатор: Тёмные судьбы / Terminator: Dark Fate (2019) BDRip [H.264 / 1080p-LQ]Производство: США, Китай, 20th Century Fox Film Corporation, ...
    Жанр: фантастика, боевик, приключения
    Режиссер: Тим Миллер
    Продюсер: Джеймс Кэмерон, Дэвид Эллисон, Эдвард Чэн

    Актеры
    Арнольд Шварценеггер, Эдвард Ферлонг, Линда Хэмилтон, Диего Бонета, Маккензи Дэвис, Том Хоппер, Бретт Азар, Гэбриел Луна, Наталия Рейес, Кассандра Старр

    Описание

    Сара Коннор превратилась в настоящую охотницу за терминаторами и теперь занимается уничтожением роботов-убийц из будущего. Она считала, что главное — это не дать им добраться до Джона, но теперь появилась Дани Рамос, от выживания которой также зависит судьба человечества. Вместе с ней в бой вступает и загадочная Грейс, смесь человека и машины.

    Возраст: 16+ (зрителям, достигшим 16 лет)
    Рейтинг MPAA: R (лицам до 17 лет обязательно присутствие взрослого)
    Дата мировой премьеры: 23 октября 2019
    Дата российской премьеры: 31 октября 2019, Двадцатый Век Фокс СНГ
    Релиз от: NNMClub
    Продолжительность: 02: 08: 06
    Качество видео: BDRip (batonchik )
    Перевод: Дублированный (iTunes), Одноголосый закадровый (Д. Есарев)
    Субтитры: Русские (Forced, full), украинские (Forced, full), английские (Full, SDH)
    Видео: AVC/H.264, 1920x800 (2.40: 1), 5152 Kbps, 23.976 fps
    Аудио 1: AC-3, 6 ch, 48 kHz, 384 Kbps | Русский (Dub iTunes)
    Аудио 2: AC-3, 6 ch, 48 kHz, 640 Kbps | Русский (AVO Д. Есарев)
    Аудио 3: AAC LC, 2.0 ch, 125 Kbps | Украинский (Dub iTunes)
    Аудио 4: AC-3, 6 ch, 48 kHz, 640 Kbps | Английский--Information 30.01.2020 8: 37: 28 Standard error stream
    ---Information 30.01.2020 8: 37: 38 y4m info: 1920x800p 1: 1 @ 24000/1001 fps (cfr)
    ---Information 30.01.2020 8: 37: 38 x264 info: using SAR=1/1
    ---Information 30.01.2020 8: 37: 38 x264 info: using cpu capabilities: MMX2 SSE2Fast SSSE3 SSE4.2 AVX
    ---Information 30.01.2020 8: 37: 38 x264 info: profile High, level 4.1, 4: 2: 0, 8-bit
    ---Information 30.01.2020 14: 28: 40 x264 info: frame I: 1289 Avg QP: 16.08 size: 113250
    ---Information 30.01.2020 14: 28: 40 x264 info: frame P: 53019 Avg QP: 17.56 size: 49093
    ---Information 30.01.2020 14: 28: 40 x264 info: frame B: 129956 Avg QP: 19.20 size: 16927

    ---Information 30.01.2020 14: 28: 40 x264 info: consecutive B-frames: 6.7% 7.9% 16.6% 17.0% 15.9% 32.7% 1.8% 0.8% 0.7%
    General
    Complete name : Терминатор-Тёмные судьбы_Terminator-Dark Fate (2019) BDRip.H.264.1080p.LQ.NNMClub.mkv
    Format : Matroska
    Format version : Version 4
    File size : 6.21 GiB
    Duration : 2 h 8 min
    Overall bit rate : 6 943 kb/s
    Movie name : Терминатор: Тёмные судьбы_Terminator: Dark Fate (2019) BDRip.H.264.1080p.LQ.NNMClub
    Encoded date : UTC 2020-01-31 05: 03: 19
    Writing application : mkvmerge v40.0.0 (\'Old Town Road + Pony\') 64-bit
    Writing library : libebml v1.3.9 + libmatroska v1.5.2
    Cover : Yes
    Attachments : cover.jpg/cover.jpg
    Video
    ID : 1
    Format : AVC
    Format/Info : Advanced Video Codec
    Format profile : High@L4.1
    Format settings : CABAC/5 Ref Frames
    Format settings, CABAC : Yes
    Format settings, Reference frames : 5 frames
    Codec ID : V_MPEG4/ISO/AVC
    Duration : 2 h 8 min
    Bit rate : 5 152 kb/s
    Width : 1 920 pixels
    Height : 800 pixels
    Display aspect ratio : 2.40: 1
    Frame rate mode : Constant
    Frame rate : 23.976 (24000/1001) FPS
    Color space : YUV
    Chroma subsampling : 4: 2: 0
    Bit depth : 8 bits
    Scan type : Progressive
    Bits/(Pixel*Frame) : 0.140
    Stream size : 4.61 GiB (74%)
    Title : Терминатор: Тёмные судьбы_Terminator: Dark Fate (2019) BDRip.H.264.1080p.LQ.NNMClub
    Writing library : x264 core 158 r2984 3759fcb
    Encoding settings : cabac=1/ref=5/deblock=1: -3: -3/analyse=0x3: 0x133/me=umh/subme=10/psy=1/psy_rd=1.00: 0.25/mixed_ref=1/me_range=32/chroma_me=1/trellis=2/8x8dct=1/cqm=0/deadzone=6, 6/fast_pskip=0/chroma_qp_offset=-4/threads=12/lookahead_threads=2/sliced_threads=0/nr=0/decimate=0/interlaced=0/bluray_compat=0/constrained_intra=0/bframes=8/b_pyramid=2/b_adapt=2/b_bias=0/direct=1/weightb=1/open_gop=0/weightp=2/keyint=240/keyint_min=23/scenecut=40/intra_refresh=0/rc_lookahead=40/rc=2pass/mbtree=1/bitrate=5152/ratetol=1.0/qcomp=0.60/qpmin=0/qpmax=69/qpstep=4/cplxblur=20.0/qblur=0.5/vbv_maxrate=50000/vbv_bufsize=62500/nal_hrd=none/filler=0/ip_ratio=1.10/aq=3: 0.70
    Language : English
    Default : Yes
    Forced : No
    Audio #1
    ID : 2
    Format : AC-3
    Format/Info : Audio Coding 3
    Commercial name : Dolby Digital
    Codec ID : A_AC3
    Duration : 2 h 8 min
    Bit rate mode : Constant
    Bit rate : 384 kb/s
    Channel(s) : 6 channels
    Channel layout : L R C LFE Ls Rs
    Sampling rate : 48.0 kHz
    Frame rate : 31.250 FPS (1536 SPF)
    Compression mode : Lossy
    Stream size : 352 MiB (6%)
    Title : Дублированный (iTunes)
    Language : Russian
    Service kind : Complete Main
    Default : Yes
    Forced : Yes
    Audio #2
    ID : 3
    Format : AC-3
    Format/Info : Audio Coding 3
    Commercial name : Dolby Digital
    Codec ID : A_AC3
    Duration : 2 h 8 min
    Bit rate mode : Constant
    Bit rate : 640 kb/s
    Channel(s) : 6 channels
    Channel layout : L R C LFE Ls Rs
    Sampling rate : 48.0 kHz
    Frame rate : 31.250 FPS (1536 SPF)
    Compression mode : Lossy
    Stream size : 586 MiB (9%)
    Title : AVO (Д. Есарев)
    Language : Russian
    Service kind : Complete Main
    Default : No
    Forced : No
    Audio #3
    ID : 4
    Format : AAC LC
    Format/Info : Advanced Audio Codec Low Complexity
    Codec ID : A_AAC-2
    Duration : 2 h 8 min
    Bit rate : 125 kb/s
    Channel(s) : 2 channels
    Channel layout : L R
    Sampling rate : 44.1 kHz
    Frame rate : 43.066 FPS (1024 SPF)
    Compression mode : Lossy
    Stream size : 115 MiB (2%)
    Title : Дублированный (iTunes)
    Language : Ukrainian
    Default : No
    Forced : No
    Audio #4
    ID : 5
    Format : AC-3
    Format/Info : Audio Coding 3
    Commercial name : Dolby Digital
    Codec ID : A_AC3
    Duration : 2 h 8 min
    Bit rate mode : Constant
    Bit rate : 640 kb/s
    Channel(s) : 6 channels
    Channel layout : L R C LFE Ls Rs
    Sampling rate : 48.0 kHz
    Frame rate : 31.250 FPS (1536 SPF)
    Compression mode : Lossy
    Stream size : 586 MiB (9%)
    Title : Original
    Language : English
    Service kind : Complete Main
    Default : No
    Forced : No
    Text #1
    ID : 6
    Format : UTF-8
    Codec ID : S_TEXT/UTF8
    Codec ID/Info : UTF-8 Plain Text
    Duration : 2 h 4 min
    Bit rate : 4 b/s
    Count of elements : 143
    Stream size : 4.36 KiB (0%)
    Title : Forced iTunes
    Language : Russian
    Default : Yes
    Forced : Yes
    Text #2
    ID : 7
    Format : UTF-8
    Codec ID : S_TEXT/UTF8
    Codec ID/Info : UTF-8 Plain Text
    Duration : 2 h 7 min
    Bit rate : 49 b/s
    Count of elements : 1250
    Stream size : 46.2 KiB (0%)
    Title : Full iTunes
    Language : Russian
    Default : No
    Forced : No
    Text #3
    ID : 8
    Format : UTF-8
    Codec ID : S_TEXT/UTF8
    Codec ID/Info : UTF-8 Plain Text
    Duration : 1 h 57 min
    Bit rate : 61 b/s
    Count of elements : 1178
    Stream size : 53.4 KiB (0%)
    Title : Full Enigma
    Language : Russian
    Default : No
    Forced : No
    Text #4
    ID : 9
    Format : UTF-8
    Codec ID : S_TEXT/UTF8
    Codec ID/Info : UTF-8 Plain Text
    Duration : 2 h 7 min
    Bit rate : 50 b/s
    Count of elements : 1250
    Stream size : 46.8 KiB (0%)
    Title : Full Fadeev, Levina
    Language : Russian
    Default : No
    Forced : No
    Text #5
    ID : 10
    Format : UTF-8
    Codec ID : S_TEXT/UTF8
    Codec ID/Info : UTF-8 Plain Text
    Duration : 2 h 4 min
    Bit rate : 4 b/s
    Count of elements : 139
    Stream size : 4.42 KiB (0%)
    Title : Forced iTunes
    Language : Ukrainian
    Default : No
    Forced : No
    Text #6
    ID : 11
    Format : UTF-8
    Codec ID : S_TEXT/UTF8
    Codec ID/Info : UTF-8 Plain Text
    Duration : 2 h 7 min
    Bit rate : 50 b/s
    Count of elements : 1239
    Stream size : 47.1 KiB (0%)
    Title : Full iTunes
    Language : Ukrainian
    Default : No
    Forced : No
    Text #7
    ID : 12
    Format : UTF-8
    Codec ID : S_TEXT/UTF8
    Codec ID/Info : UTF-8 Plain Text
    Duration : 1 h 57 min
    Bit rate : 31 b/s
    Count of elements : 1078
    Stream size : 27.2 KiB (0%)
    Title : Full
    Language : English
    Default : No
    Forced : No
    Text #8
    ID : 13
    Format : UTF-8
    Codec ID : S_TEXT/UTF8
    Codec ID/Info : UTF-8 Plain Text
    Duration : 1 h 57 min
    Bit rate : 39 b/s
    Count of elements : 1388
    Stream size : 34.3 KiB (0%)
    Title : SDH
    Language : English
    Default : No
    Forced : No
    Text #9
    ID : 14
    Format : UTF-8
    Codec ID : S_TEXT/UTF8
    Codec ID/Info : UTF-8 Plain Text
    Duration : 1 h 57 min
    Bit rate : 68 b/s
    Count of elements : 1388
    Stream size : 58.6 KiB (0%)
    Title : SDH Colored
    Language : English
    Default : No
    Forced : No
    Menu
    00: 00: 00.000 : en: Глава 01
    00: 04: 19.843 : en: Глава 02
    00: 07: 48.927 : en: Глава 03
    00: 11: 47.916 : en: Глава 04
    00: 16: 56.349 : en: Глава 05
    00: 22: 10.663 : en: Глава 06
    00: 29: 00.614 : en: Глава 07
    00: 33: 25.754 : en: Глава 08
    00: 41: 35.493 : en: Глава 09
    00: 47: 02.695 : en: Глава 10
    00: 53: 08.936 : en: Глава 11
    00: 57: 56.807 : en: Глава 12
    01: 05: 02.690 : en: Глава 13
    01: 13: 07.967 : en: Глава 14
    01: 20: 45.591 : en: Глава 15
    01: 27: 29.744 : en: Глава 16
    01: 32: 48.688 : en: Глава 17
    01: 41: 45.850 : en: Глава 18
    01: 49: 35.319 : en: Глава 19
    01: 57: 58.613 : en: Глава 20


    Онлайн видео Терминатор: Тёмные судьбы


    Терминатор: Тёмные судьбы/Terminator: Dark Fate (2019) BDRip [H.264/1080p-LQ]

    Терминатор: Тёмные судьбы / Terminator: Dark Fate (2019) BDRip [H.264 / 1080p-LQ] торрент скачать бесплатно
    Рейтинг →
     (голосов: 1, оценка 5/5, голосовать можно 1 раз )

    Другие торренты по теме:

  • Терминатор: Тёмные судьбы / Terminator: Dark Fate (2019) WEB-DLRip [H.264 / 1080p-LQ] [Line, AD]
  • Терминатор: Тёмные судьбы / Terminator: Dark Fate (2019) WEB-DLRip [Line] [AD]
  • Терминатор: Тёмные судьбы / Terminator: Dark Fate (2019) WEBRip [H.264 / 720p-LQ] [Line, AD]
  • Терминатор: Тёмные судьбы / Terminator: Dark Fate (2019) WEBRip [H.264 / 1080p] [EN / EN Sub]
  • Терминатор: Тёмные судьбы / Terminator: Dark Fate (2019) UHD BDRemux [H.265 / 2160p] [4K, HDR, 10-bit]
  • Терминатор: Тёмные судьбы / Terminator: Dark Fate (2019) AC3 5.1 [hand made]
  • Терминатор: Тёмные судьбы / Terminator: Dark Fate (2019) WEBRip [H.264 / 2160p] [4K, SDR, 8-bit] [MVO]
  • Терминатор: Тёмные судьбы / Terminator: Dark Fate (2019) BDRip [H.264 / 720p] [MVO] [PR]


    • Комментарии (0):

      Информация

      Информация

        Посетители, находящиеся в группе Гости, не могут оставлять комментарии в данной новости.

        ↓ Меню




        ↓ Опрос

        Вы добавили сайт в закладки?
        Да
        Нет


        Популярное