.
Авторизация | Регистрация
bitok.xyz
Торрент скачать бесплатно Фильмы торрент скачать Хорошие мальчики / Good Boys (2019) BDRip [H.265] [10-bit] торрент скачать бесплатно


    Хорошие мальчики / Good Boys (2019) BDRip [H.265] [10-bit] торрент скачать бесплатно

    Дата: 1-02-2020, 05:00 | .torrent скачали: 0

    Хорошие мальчики / Good Boys (2019) BDRip [H.265] [10-bit]Производство: США/Good Universe, Point Grey Pictures, Universal Pictures
    Жанр: Комедия, приключения
    Режиссер: Джин Ступницки

    Актеры
    Джейкоб Тремблей, Кит Л. Уильямс, Брэйди Нун, Молли Гордон, Мидори Френсис, Исаак Ванг, Милли Дэвис, Джош Барклай Карас, Уилл Форте, Mariessa Portelance

    Описание

    История троих друзей-шестиклассников, планирующих посетить крутую вечеринку. Но прежде они должны хорошенько подготовиться, чтобы не ударить в грязь лицом. Так начинается безумное путешествие по долине Сан-Фернандо, в котором надо вернуть наркотики, украсть пиво и починить сломанного дрона — все это нужно сделать, пока родители не вернулись домой.

    Возраст: 16+ (зрителям, достигшим 16 лет)
    Рейтинг MPAA: R (лицам до 17 лет обязательно присутствие взрослого)
    Дата мировой премьеры: 11 марта 2019
    Продолжительность: 01: 29: 38
    Качество видео: BDRip
    Перевод: Дублированное Лицензия Blu-Ray EUR
    Субтитры: Русские (полные, форсированные), английские
    Видео: HEVC/H.265, 1024x428, 1964 Kbps
    Аудио 1 : AC3, 2 ch, 160 Kbps | Русский
    Аудио 2 : AC3, 2 ch, 160 Kbps | АнглийскийОбщее
    Уникальный идентификатор : 170070566821685044341839270593198424349 (0x7FF26654B5E20F5B12450FE9FABA011D)
    Полное имя : Good.Boys.2019.BDRip.HEVC.mkv
    Формат : Matroska
    Версия формата : Version 4/Version 2
    Размер файла : 1, 46 Гбайт
    Продолжительность : 1 ч. 29 м.
    Общий поток : 2330 Кбит/сек
    Название фильма : Good Boys 2019
    Программа кодирования : XviD4PSP 8.0.91
    Библиотека кодирования : Lavf58.20.100
    ErrorDetectionType : Per level 1
    ENCODING_INFO : MATROSKA, WEBM MKV 1024 x 576
    Видео
    Идентификатор : 1
    Формат : HEVC
    Формат/Информация : High Efficiency Video Coding
    Профиль формата : Main10@L4.1@High
    Идентификатор кодека : V_MPEGH/ISO/HEVC
    Продолжительность : 1 ч. 29 м.
    Битрейт : 1964 Кбит/сек
    Ширина : 1024 пикселя
    Высота : 428 пикселей
    Соотношение сторон : 2, 40: 1
    Режим частоты кадров : Постоянный
    Частота кадров : 23, 976 (24000/1001) кадра/сек
    Цветовое пространство : YUV
    Субдискретизация насыщенности : 4: 2: 0
    Битовая глубина : 10 бит
    Бит/(Пиксели*Кадры) : 0.187
    Размер потока : 1, 23 Гбайт (84%)
    Язык : English
    Default : Да
    Forced : Нет
    Цветовой диапазон : Full
    ENCODING_INFO : H264 HEVC NVENC VBR 2000kbps HQ
    Аудио #1
    Идентификатор : 2
    Формат : AC-3
    Формат/Информация : Audio Coding 3
    Параметр Endianness формата : Big
    Идентификатор кодека : A_AC3
    Продолжительность : 1 ч. 29 м.
    Вид битрейта : Постоянный
    Битрейт : 160 Кбит/сек
    Каналы : 2 канала
    Расположение каналов : Front: L R
    Частота : 48, 0 КГц
    Частота кадров : 31, 250 кадров/сек (1536 SPF)
    Битовая глубина : 16 бит
    Метод сжатия : С потерями
    Размер потока : 103 Мбайт (7%)
    Заголовок : Dub License
    Язык : Russian
    ServiceKind/String : Complete Main
    Default : Да
    Forced : Нет
    ENCODING_INFO : DTS AC3 CBR 160kbps
    Аудио #2
    Идентификатор : 3
    Формат : AC-3
    Формат/Информация : Audio Coding 3
    Параметр Endianness формата : Big
    Идентификатор кодека : A_AC3
    Продолжительность : 1 ч. 29 м.
    Вид битрейта : Постоянный
    Битрейт : 160 Кбит/сек
    Каналы : 2 канала
    Расположение каналов : Front: L R
    Частота : 48, 0 КГц
    Частота кадров : 31, 250 кадров/сек (1536 SPF)
    Битовая глубина : 16 бит
    Метод сжатия : С потерями
    Размер потока : 103 Мбайт (7%)
    Заголовок : Original
    Язык : English
    ServiceKind/String : Complete Main
    Default : Нет
    Forced : Нет
    ENCODING_INFO : DTS-HD MA AC3 CBR 160kbps
    Текст #1
    Идентификатор : 4
    Формат : UTF-8
    Идентификатор кодека : S_TEXT/UTF8
    Идентификатор кодека/Информация : UTF-8 Plain Text
    Заголовок : Forced
    Язык : Russian
    Default : Да
    Forced : Да
    ENCODING_INFO : SUBRIP COPY Быстрое
    Текст #2
    Идентификатор : 5
    Формат : UTF-8
    Идентификатор кодека : S_TEXT/UTF8
    Идентификатор кодека/Информация : UTF-8 Plain Text
    Заголовок : Full
    Язык : Russian
    Default : Нет
    Forced : Нет
    ENCODING_INFO : SUBRIP COPY Быстрое
    Текст #3
    Идентификатор : 6
    Формат : UTF-8
    Идентификатор кодека : S_TEXT/UTF8
    Идентификатор кодека/Информация : UTF-8 Plain Text
    Язык : English
    Default : Нет
    Forced : Нет
    ENCODING_INFO : SUBRIP COPY Быстрое
    Меню
    00: 00: 00.000 : : 00: 00: 00.000
    00: 03: 54.025 : : 00: 03: 54.025
    00: 09: 00.165 : : 00: 09: 00.165
    00: 11: 51.169 : : 00: 11: 51.169
    00: 15: 08.658 : : 00: 15: 08.658
    00: 17: 29.839 : : 00: 17: 29.840
    00: 21: 20.696 : : 00: 21: 20.696
    00: 27: 27.646 : : 00: 27: 27.646
    00: 31: 25.675 : : 00: 31: 25.675
    00: 35: 06.103 : : 00: 35: 06.104
    00: 40: 11.868 : : 00: 40: 11.868
    00: 47: 16.208 : : 00: 47: 16.208
    00: 51: 01.183 : : 00: 51: 01.183
    00: 57: 54.388 : : 00: 57: 54.388
    01: 02: 27.953 : : 01: 02: 27.953
    01: 06: 46.544 : : 01: 06: 46.544
    01: 09: 56.901 : : 01: 09: 56.901
    01: 14: 19.497 : : 01: 14: 19.497
    01: 20: 00.796 : : 01: 20: 00.796
    01: 23: 35.427 : : 01: 23: 35.427

    Скриншоты для ознакомления



    Все одноименные релизы в Клубе
    Время раздачи: 19 - 23 (до появления первых 3-5 скачавших)

    Онлайн видео Хорошие мальчики


    Хорошие мальчики/Good Boys (2019) BDRip [H.265] [10-bit]

    Хорошие мальчики / Good Boys (2019) BDRip [H.265] [10-bit] торрент скачать бесплатно
    Рейтинг →
     (голосов: 1, оценка 3/5, голосовать можно 1 раз )

    Другие торренты по теме:

  • Хорошие мальчики (Хорошие ребята) / Good Boys (2019) BDRip [H.264]
  • Хорошие мальчики / Good Boys (2019) WEB-DLRip [H.264 / 720p-LQ] [MVO] [AD]
  • Хорошие мальчики / Good Boys (2019) BDRip [H.264 / 1080p]
  • Хорошие мальчики / Good Boys (2019) BDRemux [H.264 / 1080p]
  • Хорошие мальчики / Good Boys (2019) BDRip
  • Хорошие мальчики / Good Boys (2019) BDRip
  • Хорошие мальчики / Good Boys (2019) BDRip [H.264 / 720p-LQ]
  • Хорошие мальчики / Good Boys (2019) BDRip [H.264 / 1080p-LQ] [hand made 16:9]


    • Комментарии (0):

      Информация

      Информация

        Посетители, находящиеся в группе Гости, не могут оставлять комментарии в данной новости.

        ↓ Меню




        ↓ Опрос

        Вы добавили сайт в закладки?
        Да
        Нет


        Популярное