.
Авторизация | Регистрация
bitok.xyz
Торрент скачать бесплатно Фильмы торрент скачать 1917 / 1917 (2019) Screener [H.264 / 720p-LQ] [DVO] торрент скачать бесплатно


    1917 / 1917 (2019) Screener [H.264 / 720p-LQ] [DVO] торрент скачать бесплатно

    Дата: 1-02-2020, 05:00 | .torrent скачали: 0

    1917 / 1917 (2019) Screener [H.264 / 720p-LQ] [DVO]Производство: Великобритания, США/Amblin Partners, DreamWorks SKG, Neal Street Productions
    Жанр: Военный, Боевик, Драма, История
    Режиссер: Сэм Мендес

    Актеры
    Джордж Маккэй, Дин-Чарльз Чепмен, Марк Стронг, Эндрю Скотт, Ричард Мэдден, Клэр Дюбюрк, Колин Фёрт, Бенедикт Камбербэтч, Дэниэл Мейс

    Описание

    1917 год, разгар Первой мировой войны. Двум юным солдатам поручают смертельно опасную миссию. Они должны пересечь вражескую территорию и доставить секретное сообщение, которое предотвратит неминуемую гибель сотен солдат… Смогут ли они выиграть гонку со временем?

    Возраст: 16+ (зрителям, достигшим 16 лет)
    Рейтинг MPAA: R (лицам до 17 лет обязательно присутствие взрослого)
    Дата мировой премьеры: 06.12.2019
    Дата российской премьеры: 30.01.2020
    Продолжительность: 01: 58: 58
    Качество видео: Screener
    Перевод: Двуголосый любительский, Одноголосый любительский
    Субтитры: Русские, Английские
    Видео: AVC/H.264, 1280x536, ~2000 Kbps
    Аудио #1: AC3, 2 ch, 256 Kbps - Русский (DVO - LakeFilms)
    Аудио #2: AC3, 2 ch, 256 Kbps - Русский (VO - Sound Film)
    Аудио #3: AC3, 2 ch, 256 Kbps - Английский
    General
    Unique ID : 152773195679398429608934617428949048683 (0x72EF0C16FE985A9EC2F8D7F993059D6B)
    Complete name : /media/win/TORRENT/UPLOAD_TORRENTS/mbiC.R.4a.917_2019_WEBRip_H.264_720p.mkv
    Format : Matroska
    Format version : Version 4
    File size : 2.31 GiB
    Duration : 1 h 58 min
    Overall bit rate : 2 774 kb/s
    Movie name : mbiC.R.4a.917_2019_WEBRip_H.264_720p
    Encoded date : UTC 2020-01-30 03: 16: 12
    Writing application : HandBrake 1.3.1 2020010600
    Writing library : Lavf58.29.100
    ErrorDetectionType : Per level 1
    Video
    ID : 1
    Format : AVC
    Format/Info : Advanced Video Codec
    Format profile : High@L4
    Format settings : CABAC/12 Ref Frames
    Format settings, CABAC : Yes
    Format settings, Reference frames : 12 frames
    Codec ID : V_MPEG4/ISO/AVC
    Duration : 1 h 58 min
    Bit rate : 2 000 kb/s
    Width : 1 280 pixels
    Height : 536 pixels
    Display aspect ratio : 2.40: 1
    Frame rate mode : Constant
    Frame rate : 23.976 (24000/1001) FPS
    Color space : YUV
    Chroma subsampling : 4: 2: 0
    Bit depth : 8 bits
    Scan type : Progressive
    Bits/(Pixel*Frame) : 0.122
    Stream size : 1.62 GiB (70%)
    Writing library : x264 core 159 r2991 1771b55
    Encoding settings : cabac=1/ref=12/deblock=1: 0: 0/analyse=0x3: 0x113/me=umh/subme=9/psy=1/psy_rd=1, 00: 0, 00/mixed_ref=1/me_range=24/chroma_me=1/trellis=1/8x8dct=1/cqm=0/deadzone=21, 11/fast_pskip=1/chroma_qp_offset=-2/threads=17/lookahead_threads=1/sliced_threads=0/nr=0/decimate=1/interlaced=0/bluray_compat=0/constrained_intra=0/bframes=6/b_pyramid=2/b_adapt=2/b_bias=0/direct=1/weightb=1/open_gop=0/weightp=2/keyint=240/keyint_min=24/scenecut=40/intra_refresh=0/rc_lookahead=40/rc=2pass/mbtree=1/bitrate=2000/ratetol=1, 0/qcomp=0, 60/qpmin=0/qpmax=69/qpstep=4/cplxblur=20, 0/qblur=0, 5/vbv_maxrate=25000/vbv_bufsize=31250/nal_hrd=none/filler=0/ip_ratio=1, 40/aq=1: 1, 00
    Default : Yes
    Forced : No
    Color range : Limited
    Color primaries : BT.709
    Transfer characteristics : BT.709
    Matrix coefficients : BT.709
    DURATION : 01: 58: 57, 631000000
    Audio #1
    ID : 2
    Format : AC-3
    Format/Info : Audio Coding 3
    Commercial name : Dolby Digital
    Codec ID : A_AC3
    Duration : 1 h 58 min
    Bit rate mode : Constant
    Bit rate : 256 kb/s
    Channel(s) : 2 channels
    Channel layout : L R
    Sampling rate : 48.0 kHz
    Frame rate : 31.250 FPS (1536 SPF)
    Compression mode : Lossy
    Stream size : 218 MiB (9%)
    Title : LakeFilms
    Language : Russian
    Service kind : Complete Main
    Default : Yes
    Forced : No
    DURATION : 01: 58: 57, 632000000
    Audio #2
    ID : 3
    Format : AC-3
    Format/Info : Audio Coding 3
    Commercial name : Dolby Digital
    Codec ID : A_AC3
    Duration : 1 h 58 min
    Bit rate mode : Constant
    Bit rate : 256 kb/s
    Channel(s) : 2 channels
    Channel layout : L R
    Sampling rate : 48.0 kHz
    Frame rate : 31.250 FPS (1536 SPF)
    Compression mode : Lossy
    Stream size : 218 MiB (9%)
    Title : Sound Film
    Language : Russian
    Service kind : Complete Main
    Default : No
    Forced : No
    DURATION : 01: 58: 57, 568000000
    Audio #3
    ID : 4
    Format : AC-3
    Format/Info : Audio Coding 3
    Commercial name : Dolby Digital
    Codec ID : A_AC3
    Duration : 1 h 58 min
    Bit rate mode : Constant
    Bit rate : 256 kb/s
    Channel(s) : 2 channels
    Channel layout : L R
    Sampling rate : 48.0 kHz
    Frame rate : 31.250 FPS (1536 SPF)
    Compression mode : Lossy
    Stream size : 218 MiB (9%)
    Title : Stereo
    Language : English
    Service kind : Complete Main
    Default : No
    Forced : No
    DURATION : 01: 58: 56, 000000000
    Text #1
    ID : 5
    Format : ASS
    Codec ID : S_TEXT/ASS
    Codec ID/Info : Advanced Sub Station Alpha
    Compression mode : Lossless
    Language : Russian
    Default : No
    Forced : No
    DURATION : 01: 47: 45, 000000000
    Text #2
    ID : 6
    Format : ASS
    Codec ID : S_TEXT/ASS
    Codec ID/Info : Advanced Sub Station Alpha
    Compression mode : Lossless
    Language : English
    Default : No
    Forced : No
    DURATION : 01: 49: 26, 872000000
    Menu
    00: 00: 00.000 : : Chapter 1
    00: 13: 36.816 : : Chapter 2
    00: 23: 39.585 : : Chapter 3
    00: 30: 48.013 : : Chapter 4
    00: 40: 53.618 : : Chapter 5
    00: 54: 49.453 : : Chapter 6
    01: 02: 16.900 : : Chapter 7
    01: 12: 02.485 : : Chapter 8
    01: 23: 04.605 : : Chapter 9
    01: 32: 23.705 : : Chapter 10
    01: 41: 43.264 : : Chapter 11

    1917/1917 (2019) Screener [H.264/720p-LQ] [DVO]

    1917 / 1917 (2019) Screener [H.264 / 720p-LQ] [DVO] торрент скачать бесплатно
    Рейтинг →
     (голосов: 1, оценка 5/5, голосовать можно 1 раз )

    Другие торренты по теме:

  • Канонада / Kanonada (1961) Screener [LT / Rus Sub] скачать через торрент бесплатно
  • Счастье надо беречь (1958) Screener скачать через торрент бесплатно
  • Концерт Бетховена (1936) Screener скачать через торрент бесплатно
  • Таврия (1959) Screener скачать через торрент бесплатно
  • Задача с тремя неизвестными (1979) Screener скачать через торрент бесплатно
  • Интерстеллар / Interstellar (2014) Screener [Line]
  • Интерстеллар / Interstellar (2014) Screener [Line]
  • Интерстеллар / Interstellar (2014) Screener [Line] скачать через торрент бесплатно


    • Комментарии (0):

      Информация

      Информация

        Посетители, находящиеся в группе Гости, не могут оставлять комментарии в данной новости.

        ↓ Меню




        ↓ Опрос

        Вы добавили сайт в закладки?
        Да
        Нет


        Популярное