.
Авторизация | Регистрация
bitok.xyz
Торрент скачать бесплатно Фильмы торрент скачать Капкан / Crawl (2019) BDRip [H.265 / 720p] [10-bit] [PR] торрент скачать бесплатно


    Капкан / Crawl (2019) BDRip [H.265 / 720p] [10-bit] [PR] торрент скачать бесплатно

    Дата: 1-02-2020, 05:00 | .torrent скачали: 0

    Капкан / Crawl (2019) BDRip [H.265 / 720p] [10-bit] [PR]Производство: США, Сербия, Канада/Paramount Pictures, Raimi Productions
    Жанр: Ужасы, боевик, триллер, драма
    Режиссер: Александр Ажа
    Продюсер: Александр Ажа, Джастин Бёрш, Крэйг Дж. Флорес

    Актеры
    Кая Скоделарио, Барри Пеппер, Морфидд Кларк, Росс Андерсон, Хосе Пальма, Джордж Сомнер, Энсон Бун, Эми Меткалф, Тина Прибичевич, Срна Васильевич

    Описание

    У пловчихи Хэйли день не задался: сначала она проиграла заплыв, уступив доли секунды, а затем на Флориду обрушивается ураган 5-й категории. Но что ещё хуже, отец не выходит на связь, поэтому Хэйли отправляется в уже эвакуированную зону и находит его тяжелораненым и без сознания в подвале их старого дома. Пытаясь вытащить отца из сырого подвального помещения, девушка обнаруживает, что тут засел огромный агрессивный аллигатор. Неудачный день продолжается — вода прибывает, помощи ждать неоткуда, а зубастая рептилия готова напасть при любой возможности.

    Возраст: 18+ (зрителям, достигшим 18 лет. запрещено для детей)
    Рейтинг MPAA: R (лицам до 17 лет обязательно присутствие взрослого)
    Дата мировой премьеры: 10 июля 2019
    Дата премьеры в России: 22 августа 2019, Централ Партнершип
    Цифровой релиз в России: 19 ноября 2019

    Продолжительность: 01: 27: 32
    Качество видео: BDRip (720p)
    Перевод: Дублированный (Лицензия)
    Субтитры: Русские (полные, форсированные), английские
    Видео: HEVC/H.265, 1280x536, 4845 Kbps
    Аудио 1: AC3, 6 ch, 448 Kbps | Русский
    Аудио 2: AC3, 6 ch, 448 Kbps | АнглийскийОбщее
    Уникальный идентификатор : 230124546716004382933899757945473461214 (0xAD206023C68056B326C60BFCB9FBEBDE)
    Полное имя : Crawl.2019.BDRip.720p.HEVC.mkv
    Формат : Matroska
    Версия формата : Version 4/Version 2
    Размер файла : 3, 58 Гбайт
    Продолжительность : 1 ч. 27 м.
    Общий поток : 5858 Кбит/сек
    Название фильма : Crawl 2019
    Программа кодирования : XviD4PSP 8.0.91
    Библиотека кодирования : Lavf58.20.100
    ErrorDetectionType : Per level 1
    ENCODING_INFO : MATROSKA, WEBM MKV 1280 x 720
    Видео
    Идентификатор : 1
    Формат : HEVC
    Формат/Информация : High Efficiency Video Coding
    Профиль формата : Main10@L4.1@High
    Идентификатор кодека : V_MPEGH/ISO/HEVC
    Продолжительность : 1 ч. 27 м.
    Битрейт : 4845 Кбит/сек
    Ширина : 1280 пикселей
    Высота : 536 пикселей
    Соотношение сторон : 2, 40: 1
    Режим частоты кадров : Постоянный
    Частота кадров : 23, 976 (24000/1001) кадра/сек
    Цветовое пространство : YUV
    Субдискретизация насыщенности : 4: 2: 0
    Битовая глубина : 10 бит
    Бит/(Пиксели*Кадры) : 0.295
    Размер потока : 2, 96 Гбайт (83%)
    Язык : English
    Default : Да
    Forced : Нет
    Цветовой диапазон : Full
    ENCODING_INFO : H264 HEVC NVENC VBR 5000kbps HQ
    Аудио #1
    Идентификатор : 2
    Формат : AC-3
    Формат/Информация : Audio Coding 3
    Параметр Endianness формата : Big
    Идентификатор кодека : A_AC3
    Продолжительность : 1 ч. 27 м.
    Вид битрейта : Постоянный
    Битрейт : 448 Кбит/сек
    Каналы : 6 каналов
    Расположение каналов : Front: L C R, Side: L R, LFE
    Частота : 48, 0 КГц
    Частота кадров : 31, 250 кадров/сек (1536 SPF)
    Битовая глубина : 16 бит
    Метод сжатия : С потерями
    Размер потока : 280 Мбайт (8%)
    Заголовок : Dub License
    Язык : Russian
    ServiceKind/String : Complete Main
    Default : Да
    Forced : Нет
    ENCODING_INFO : AC3 AC3 CBR 448kbps
    Аудио #2
    Идентификатор : 3
    Формат : AC-3
    Формат/Информация : Audio Coding 3
    Параметр Endianness формата : Big
    Идентификатор кодека : A_AC3
    Продолжительность : 1 ч. 27 м.
    Вид битрейта : Постоянный
    Битрейт : 448 Кбит/сек
    Каналы : 6 каналов
    Расположение каналов : Front: L C R, Side: L R, LFE
    Частота : 48, 0 КГц
    Частота кадров : 31, 250 кадров/сек (1536 SPF)
    Битовая глубина : 16 бит
    Метод сжатия : С потерями
    Размер потока : 280 Мбайт (8%)
    Заголовок : Original
    Язык : English
    ServiceKind/String : Complete Main
    Default : Нет
    Forced : Нет
    ENCODING_INFO : DTS-HD MA AC3 CBR 448kbps
    Текст #1
    Идентификатор : 4
    Формат : UTF-8
    Идентификатор кодека : S_TEXT/UTF8
    Идентификатор кодека/Информация : UTF-8 Plain Text
    Заголовок : Forced
    Язык : Russian
    Default : Да
    Forced : Да
    ENCODING_INFO : SUBRIP COPY Быстрое
    Текст #2
    Идентификатор : 5
    Формат : UTF-8
    Идентификатор кодека : S_TEXT/UTF8
    Идентификатор кодека/Информация : UTF-8 Plain Text
    Заголовок : Full
    Язык : Russian
    Default : Нет
    Forced : Нет
    ENCODING_INFO : SUBRIP COPY Быстрое
    Текст #3
    Идентификатор : 6
    Формат : UTF-8
    Идентификатор кодека : S_TEXT/UTF8
    Идентификатор кодека/Информация : UTF-8 Plain Text
    Язык : English
    Default : Нет
    Forced : Нет
    ENCODING_INFO : SUBRIP COPY Быстрое
    Меню
    00: 00: 00.000 : : Chapter 01
    00: 07: 51.805 : : Chapter 02
    00: 15: 16.290 : : Chapter 03
    00: 22: 15.459 : : Chapter 04
    00: 34: 42.998 : : Chapter 05
    00: 42: 15.283 : : Chapter 06
    00: 50: 13.219 : : Chapter 07
    00: 57: 13.221 : : Chapter 08
    01: 03: 51.619 : : Chapter 09
    01: 08: 56.299 : : Chapter 10
    01: 16: 36.425 : : Chapter 11
    01: 23: 10.819 : : Chapter 12
    Скриншоты для ознакомления



    Все одноименные релизы в Клубе
    Время раздачи: 19 - 23 (до появления первых 3-5 скачавших)

    Онлайн видео Капкан


    Капкан/Crawl (2019) BDRip [H.265/720p] [10-bit] [PR]

    Капкан / Crawl (2019) BDRip [H.265 / 720p] [10-bit] [PR] торрент скачать бесплатно
    Рейтинг →
     (голосов: 1, оценка 4/5, голосовать можно 1 раз )

    Другие торренты по теме:

  • Капкан / Crawl (2019) WEB-DLRip [AD]
  • Капкан / Crawl (2019) WEB-DLRip [H.264 / 1080p-LQ] [AD]
  • Капкан / Crawl (2019) BDRip [H.264 / 1080p] [EN / RU, EN Sub] [PR]
  • Капкан / Crawl (2019) BDRip [H.264 / 1080p] [VO]
  • Капкан / Crawl (2019) BDRemux [H.264 / 1080p] [VO]
  • Капкан / Crawl (2019) BDRip [H.264 / 720p] [VO]
  • Капкан / Crawl (2019) BDRip [H.264 / 1080p]
  • Капкан / Crawl (2019) BDRemux [H.264 / 1080p]


    • Комментарии (0):

      Информация

      Информация

        Посетители, находящиеся в группе Гости, не могут оставлять комментарии в данной новости.

        ↓ Меню




        ↓ Опрос

        Вы добавили сайт в закладки?
        Да
        Нет


        Популярное