.
Авторизация | Регистрация
bitok.xyz
Торрент скачать бесплатно Фильмы торрент скачать Хороший лжец / The Good Liar (2019) BDRemux [H.264 / 1080p] торрент скачать бесплатно


    Хороший лжец / The Good Liar (2019) BDRemux [H.264 / 1080p] торрент скачать бесплатно

    Дата: 1-02-2020, 05:00 | .torrent скачали: 0

    Хороший лжец / The Good Liar (2019) BDRemux [H.264 / 1080p]Производство: Великобритания, США, Германия/BRON Studios, Creative Wealth Media Finance, New Line Cinema
    Жанр: Драма, детектив
    Режиссер: Билл Кондон

    Актеры
    Хелен Миррен, Иэн Маккеллен, Рассел Тови, Джим Картер, Марк Льюис Джонс, Лори Дэвидсон, Фил Данстер, Лусиан Мсамати, Йоуханнес Хёйкьюр Йоуханнессон, Тунджи Касим

    Описание

    Фильм, основанный на одноимённом романе Николаса Сирла, расскажет о мошеннике и аферисте Рое Кортнее, который находит богатую вдову Бетти МакЛиш на сайте знакомств и не может поверить своей удаче. Его цель — украсть все её сбережения, исчезнуть и уйти на пенсию. Когда Бетти приглашает мужчину домой и знакомит его со своей семьей, у Роя начинают появляться настоящие чувства к новой жертве. И теперь он не знает, сможет ли до конца осуществить задуманное. Однако и Бетти не так проста, как кажется с первого взгляда, а в ее прошлом найдется место мрачным тайнам...

    Возраст: 18+ (зрителям, достигшим 18 лет. запрещено для детей)
    Рейтинг MPAA: R (лицам до 17 лет обязательно присутствие взрослого)
    Дата мировой премьеры: 8 ноября 2019
    Дата российской премьеры: 14 ноября 2019, Каро-Премьер
    Релиз от: mike7025
    Продолжительность: 01: 49: 37
    Качество видео: BDRemux
    Перевод: Дублированный, авторский
    Субтитры: Русские (forced, full), украинские (forced), английские
    Видео: AVC/H.264, 1920х1080, ~34.1 Mbps
    Аудио 1: AC3, 6 ch, 384 Kbps - Русский (Dub, iTunes)
    Аудио 2: AC3, 6 ch, 448 Kbps - Русский (АVO, zamez)ненормативная лексика
    Аудио 3: AC3, 2 ch, 192 Kbps - Украинский (Dub, iTunes)
    Аудио 4: DTS-HD MA, 6 ch, 2141 Kbps - Английский
    General
    Unique ID : 142805230369436127673255378176738053103 (0x6B6F4974CADE681D1F19EAD5DF1FCBEF)
    Complete name : G: The.Good.Liar.2019.REMUX.mkv
    Format : Matroska
    Format version : Version 4
    File size : 28.5 GiB
    Duration : 1 h 49 min
    Overall bit rate mode : Variable
    Overall bit rate : 37.3 Mb/s
    Encoded date : UTC 2020-01-31 00: 42: 47
    Writing application : mkvmerge v20.0.0 (\'I Am The Sun\') 64-bit
    Writing library : libebml v1.3.5 + libmatroska v1.4.8
    Video
    ID : 1
    Format : AVC
    Format/Info : Advanced Video Codec
    Format profile : High@L4.1
    Format settings : CABAC/4 Ref Frames
    Format settings, CABAC : Yes
    Format settings, Reference frames : 4 frames
    Codec ID : V_MPEG4/ISO/AVC
    Duration : 1 h 49 min
    Bit rate mode : Variable
    Bit rate : 34.1 Mb/s
    Maximum bit rate : 37.0 Mb/s
    Width : 1 920 pixels
    Height : 1 080 pixels
    Display aspect ratio : 16: 9
    Frame rate mode : Constant
    Frame rate : 23.976 (24000/1001) FPS
    Color space : YUV
    Chroma subsampling : 4: 2: 0
    Bit depth : 8 bits
    Scan type : Progressive
    Bits/(Pixel*Frame) : 0.686
    Stream size : 26.1 GiB (91%)
    Language : English
    Default : Yes
    Forced : No
    Audio #1
    ID : 2
    Format : AC-3
    Format/Info : Audio Coding 3
    Commercial name : Dolby Digital
    Codec ID : A_AC3
    Duration : 1 h 49 min
    Bit rate mode : Constant
    Bit rate : 384 kb/s
    Channel(s) : 6 channels
    Channel layout : L R C LFE Ls Rs
    Sampling rate : 48.0 kHz
    Frame rate : 31.250 FPS (1536 SPF)
    Compression mode : Lossy
    Stream size : 301 MiB (1%)
    Title : Dub iTunes
    Language : Russian
    Service kind : Complete Main
    Default : Yes
    Forced : No
    Audio #2
    ID : 3
    Format : AC-3
    Format/Info : Audio Coding 3
    Commercial name : Dolby Digital
    Codec ID : A_AC3
    Duration : 1 h 49 min
    Bit rate mode : Constant
    Bit rate : 448 kb/s
    Channel(s) : 6 channels
    Channel layout : L R C LFE Ls Rs
    Sampling rate : 48.0 kHz
    Frame rate : 31.250 FPS (1536 SPF)
    Compression mode : Lossy
    Stream size : 351 MiB (1%)
    Title : VO zamez
    Language : Russian
    Service kind : Complete Main
    Default : No
    Forced : No
    Audio #3
    ID : 4
    Format : AC-3
    Format/Info : Audio Coding 3
    Commercial name : Dolby Digital
    Codec ID : A_AC3
    Duration : 1 h 49 min
    Bit rate mode : Constant
    Bit rate : 192 kb/s
    Channel(s) : 2 channels
    Channel layout : L R
    Sampling rate : 48.0 kHz
    Frame rate : 31.250 FPS (1536 SPF)
    Compression mode : Lossy
    Stream size : 151 MiB (1%)
    Title : Dub iTunes
    Language : Ukrainian
    Service kind : Complete Main
    Default : No
    Forced : No
    Audio #4
    ID : 5
    Format : DTS XLL
    Format/Info : Digital Theater Systems
    Commercial name : DTS-HD Master Audio
    Codec ID : A_DTS
    Duration : 1 h 49 min
    Bit rate mode : Variable
    Bit rate : 2 141 kb/s
    Channel(s) : 6 channels
    Channel layout : C L R Ls Rs LFE
    Sampling rate : 48.0 kHz
    Frame rate : 93.750 FPS (512 SPF)
    Bit depth : 16 bits
    Compression mode : Lossless
    Stream size : 1.64 GiB (6%)
    Language : English
    Default : No
    Forced : No
    Text #1
    ID : 6
    Format : UTF-8
    Codec ID : S_TEXT/UTF8
    Codec ID/Info : UTF-8 Plain Text
    Duration : 1 h 48 min
    Bit rate : 4 b/s
    Count of elements : 87
    Stream size : 3.47 KiB (0%)
    Title : forced
    Language : Russian
    Default : Yes
    Forced : No
    Text #2
    ID : 7
    Format : UTF-8
    Codec ID : S_TEXT/UTF8
    Codec ID/Info : UTF-8 Plain Text
    Duration : 1 h 48 min
    Bit rate : 89 b/s
    Count of elements : 1200
    Stream size : 70.7 KiB (0%)
    Language : Russian
    Default : No
    Forced : No
    Text #3
    ID : 8
    Format : UTF-8
    Codec ID : S_TEXT/UTF8
    Codec ID/Info : UTF-8 Plain Text
    Duration : 1 h 48 min
    Bit rate : 4 b/s
    Count of elements : 82
    Stream size : 3.33 KiB (0%)
    Title : forced
    Language : Ukrainian
    Default : No
    Forced : No
    Text #4
    ID : 9
    Format : UTF-8
    Codec ID : S_TEXT/UTF8
    Codec ID/Info : UTF-8 Plain Text
    Duration : 1 h 41 min
    Bit rate : 54 b/s
    Count of elements : 1470
    Stream size : 40.6 KiB (0%)
    Language : English
    Default : No
    Forced : No
    Menu
    00: 00: 00.000 : en: Chapter 01
    00: 07: 26.028 : en: Chapter 02
    00: 17: 30.090 : en: Chapter 03
    00: 26: 54.112 : en: Chapter 04
    00: 34: 31.652 : en: Chapter 05
    00: 43: 15.843 : en: Chapter 06
    00: 52: 14.339 : en: Chapter 07
    01: 00: 50.772 : en: Chapter 08
    01: 08: 18.177 : en: Chapter 09
    01: 17: 54.711 : en: Chapter 10
    01: 27: 05.720 : en: Chapter 11
    01: 36: 41.837 : en: Chapter 12
    01: 45: 10.178 : en: Chapter 13

    Скриншоты для ознакомления




    Все одноименные релизы в Клубе
    Время раздачи: 24/7 (до появления первых 3-5 скачавших)

    Онлайн видео Хороший лжец


    Хороший лжец/The Good Liar (2019) BDRemux [H.264/1080p]

    Хороший лжец / The Good Liar (2019) BDRemux [H.264 / 1080p] торрент скачать бесплатно
    Рейтинг →
     (голосов: 1, оценка 3/5, голосовать можно 1 раз )

    Другие торренты по теме:

  • Хороший лжец / The Good Liar (2019) HDRip [AVO]
  • Хороший лжец / The Good Liar (2019) BDRip [H.264 / 1080p] [AVO] [PR]
  • Хороший лжец / The Good Liar (2019) BDRip [H.264 / 1080p] [PR]
  • Хороший лжец / The Good Liar (2019) BDRip [H.265 / 720p] [10-bit] [PR]
  • Хороший лжец / The Good Liar (2019) BDRip [H.265] [10-bit]
  • Хороший лжец / The Good Liar (2019) BDRip [H.264]
  • Хороший лжец / The Good Liar (2019) BDRip [H.264 / 1080p]
  • Хороший лжец / The Good Liar (2019) BDRip [H.264 / 720p]


    • Комментарии (0):

      Информация

      Информация

        Посетители, находящиеся в группе Гости, не могут оставлять комментарии в данной новости.

        ↓ Меню




        ↓ Опрос

        Вы добавили сайт в закладки?
        Да
        Нет


        Популярное