.
Авторизация | Регистрация
bitok.xyz
Торрент скачать бесплатно Фильмы торрент скачать Терминатор: Тёмные судьбы / Terminator: Dark Fate (2019) BDRemux [H.264 / 1080p] торрент скачать бесплатно


    Терминатор: Тёмные судьбы / Terminator: Dark Fate (2019) BDRemux [H.264 / 1080p] торрент скачать бесплатно

    Дата: 1-02-2020, 05:00 | .torrent скачали: 0

    Терминатор: Тёмные судьбы / Terminator: Dark Fate (2019) BDRemux [H.264 / 1080p]Производство: США, Китай, Paramount Pictures, Twentieth Century Fox, Skydance Media
    Жанр: Фантастика, боевик, приключения
    Режиссер: Тим Миллер
    Продюсер: Джеймс Кэмерон, Дэвид Эллисон, Эдвард Чэн

    Актеры
    Линда Хэмилтон, Арнольд Шварценеггер, Маккензи Дэвис, Наталия Рейес, Гэбриел Луна, Диего Бонета, Алисия Боррачеро, Энрике Арсе, Стивен Кри, Ферран Фернандес

    Описание
    Мексика. Милая девушка Даниэла Рамос, а для друзей просто Дани, вместе с братом приходит с утра работать на завод, но там выясняется, что их вскоре заменят автоматикой. И это не единственная угроза, которую представляют для девушки машины: тут же на неё нападает присланная из будущего и практически неубиваемая модель терминатора REV-9. Но на защиту Дани встает Грэйс — тоже прибывшая из будущего женщина, модифицировавшая свои боевые характеристики до терминаторского уровня. Вскоре к ним на помощь придёт и Сара Коннор, которая теперь превратилась в настоящую охотницу на роботов-убийц.

    Возраст: 16+ Зрителям, достигшим 16 лет
    Рейтинг MPAA: R Лицам до 17 обязательно присутствие взрослых
    Дата мировой премьеры: 23 октября 2019
    Дата российской премьеры: 31 октября 2019, Двадцатый Век Фокс СНГ
    Цифровой релиз: 31 января 2020, Двадцатый Век Фокс СНГ
    Релиз от: NNMClub
    Продолжительность: 02: 08: 07
    Качество видео: BDRemux 1080p
    Перевод: Дублированный (iTunes), Одноголосый закадровый (Д. Есарев)
    Субтитры: Русские (Forced, full), украинские (Forced, full), английские (Full, SDH, SDH Colored)
    Видео: AVC/H.264, 1920x1080, 28.7 Mbps, 23.976 fps
    Аудио 1 : AC-3, 6 ch, 384 Kbps | Русский Dub iTunes
    Аудио 2 : DTS-HD MA, 8.0 ch, 5022 Kbps | Русский AVO (Д. Есарев)
    Аудио 3 : AC-3, 2.0 ch, 192 Kbps | Украинский Dub iTunes
    Аудио 4 : TrueHD, 8.0 ch, 4634 Kbps | Английский
    Аудио 5 : AC-3, 6 ch, 640 Kbps | Английский
    General
    Unique ID : 14717720262450433403363388537924487215 (0xB1287A2107DDB53355CD531AF7C082F)
    Complete name : /Volumes/Promise 2/Terminator.Dark.Fate.BDRemux.1080p.pk.mkv
    Format : Matroska
    Format version : Version 4
    File size : 35.5 GiB
    Duration : 2h 8mn
    Overall bit rate mode : Variable
    Overall bit rate : 39.7 Mbps
    Movie name : Terminator: Dark Fate BDRemux 1080p pk
    Encoded date : UTC 2020-01-30 23: 27: 44
    Writing application : mkvmerge v43.0.0 (\'The Quartermaster\') 64-bit
    Writing library : libebml v1.3.10 + libmatroska v1.5.2
    Cover : Yes
    Attachments : cover.jpg/cover.jpg
    Video
    ID : 1
    Format : AVC
    Format/Info : Advanced Video Codec
    Format profile : High@L4.1
    Format settings : CABAC/4 Ref Frames
    Format settings, CABAC : Yes
    Format settings, ReFrames : 4 frames
    Codec ID : V_MPEG4/ISO/AVC
    Duration : 2h 8mn
    Bit rate mode : Variable
    Bit rate : 28.7 Mbps
    Maximum bit rate : 33.3 Mbps
    Width : 1 920 pixels
    Height : 1 080 pixels
    Display aspect ratio : 16: 9
    Frame rate mode : Constant
    Frame rate : 23.976 (24000/1001) fps
    Color space : YUV
    Chroma subsampling : 4: 2: 0
    Bit depth : 8 bits
    Scan type : Progressive
    Bits/(Pixel*Frame) : 0.578
    Stream size : 25.7 GiB (72%)
    Language : English
    Default : Yes
    Forced : No
    Audio #1
    ID : 2
    Format : AC-3
    Format/Info : Audio Coding 3
    Commercial name : Dolby Digital
    Codec ID : A_AC3
    Duration : 2h 8mn
    Bit rate mode : Constant
    Bit rate : 384 Kbps
    Channel(s) : 6 channels
    Channel layout : L R C LFE Ls Rs
    Sampling rate : 48.0 KHz
    Frame rate : 31.250 fps (1536 SPF)
    Compression mode : Lossy
    Stream size : 352 MiB (1%)
    Title : Russian Dub iTunes
    Language : Russian
    Service kind : Complete Main
    Default : Yes
    Forced : No
    Audio #2
    ID : 3
    Format : DTS XLL
    Format/Info : Digital Theater Systems
    Commercial name : DTS-HD Master Audio
    Codec ID : A_DTS
    Duration : 2h 8mn
    Bit rate mode : Variable
    Bit rate : 5 022 Kbps
    Channel(s) : 8 channels
    Channel layout : C L R LFE Lb Rb Lss Rss
    Sampling rate : 48.0 KHz
    Frame rate : 93.750 fps (512 SPF)
    Bit depth : 24 bits
    Compression mode : Lossless
    Stream size : 4.49 GiB (13%)
    Title : Russian AVO Yesarev
    Language : Russian
    Default : No
    Forced : No
    Audio #3
    ID : 4
    Format : AC-3
    Format/Info : Audio Coding 3
    Commercial name : Dolby Digital
    Codec ID : A_AC3
    Duration : 2h 8mn
    Bit rate mode : Constant
    Bit rate : 192 Kbps
    Channel(s) : 2 channels
    Channel layout : L R
    Sampling rate : 48.0 KHz
    Frame rate : 31.250 fps (1536 SPF)
    Compression mode : Lossy
    Stream size : 176 MiB (0%)
    Title : Ukrainian Dub iTunes
    Language : Ukrainian
    Service kind : Complete Main
    Default : No
    Forced : No
    Audio #4
    ID : 5
    Format : MLP FBA 16-ch
    Format/Info : Meridian Lossless Packing FBA with 16-channel presentation
    Commercial name : Dolby TrueHD with Dolby Atmos
    Codec ID : A_TRUEHD
    Duration : 2h 8mn
    Bit rate mode : Variable
    Bit rate : 4 634 Kbps
    Maximum bit rate : 8 247 Kbps
    Channel(s) : 8 channels
    Channel layout : L R C LFE Ls Rs Lb Rb
    Sampling rate : 48.0 KHz
    Frame rate : 1 200.000 fps (40 SPF)
    Compression mode : Lossless
    Stream size : 4.15 GiB (12%)
    Title : English TrueHD Original
    Language : English
    Default : No
    Forced : No
    Number of dynamic objects : 11
    Bed channel count : 1 channel
    Bed channel configuration : LFE
    Audio #5
    ID : 6
    Format : AC-3
    Format/Info : Audio Coding 3
    Commercial name : Dolby Digital
    Codec ID : A_AC3
    Duration : 2h 8mn
    Bit rate mode : Constant
    Bit rate : 640 Kbps
    Channel(s) : 6 channels
    Channel layout : L R C LFE Ls Rs
    Sampling rate : 48.0 KHz
    Frame rate : 31.250 fps (1536 SPF)
    Compression mode : Lossy
    Stream size : 586 MiB (2%)
    Title : English Original
    Language : English
    Service kind : Complete Main
    Default : No
    Forced : No
    Text #1
    ID : 7
    Format : UTF-8
    Codec ID : S_TEXT/UTF8
    Codec ID/Info : UTF-8 Plain Text
    Duration : 2h 4mn
    Bit rate : 4 bps
    Count of elements : 143
    Stream size : 4.36 KiB (0%)
    Title : Russian forced iTunes
    Language : Russian
    Default : Yes
    Forced : No
    Text #2
    ID : 8
    Format : UTF-8
    Codec ID : S_TEXT/UTF8
    Codec ID/Info : UTF-8 Plain Text
    Duration : 2h 7mn
    Bit rate : 49 bps
    Count of elements : 1250
    Stream size : 46.2 KiB (0%)
    Title : Russian fulli Tunes
    Language : Russian
    Default : No
    Forced : No
    Text #3
    ID : 9
    Format : UTF-8
    Codec ID : S_TEXT/UTF8
    Codec ID/Info : UTF-8 Plain Text
    Duration : 1h 57mn
    Bit rate : 61 bps
    Count of elements : 1178
    Stream size : 53.4 KiB (0%)
    Title : Russian full Enigma
    Language : Russian
    Default : No
    Forced : No
    Text #4
    ID : 10
    Format : UTF-8
    Codec ID : S_TEXT/UTF8
    Codec ID/Info : UTF-8 Plain Text
    Duration : 2h 7mn
    Bit rate : 50 bps
    Count of elements : 1250
    Stream size : 46.8 KiB (0%)
    Title : Russian full Fadeev, Levina
    Language : Russian
    Default : No
    Forced : No
    Text #5
    ID : 11
    Format : UTF-8
    Codec ID : S_TEXT/UTF8
    Codec ID/Info : UTF-8 Plain Text
    Duration : 2h 4mn
    Bit rate : 4 bps
    Count of elements : 139
    Stream size : 4.42 KiB (0%)
    Title : Ukrainian forced iTunes
    Language : Ukrainian
    Default : No
    Forced : No
    Text #6
    ID : 12
    Format : UTF-8
    Codec ID : S_TEXT/UTF8
    Codec ID/Info : UTF-8 Plain Text
    Duration : 2h 7mn
    Bit rate : 50 bps
    Count of elements : 1239
    Stream size : 47.1 KiB (0%)
    Title : Ukrainian full iTunes
    Language : Ukrainian
    Default : No
    Forced : No
    Text #7
    ID : 13
    Format : UTF-8
    Codec ID : S_TEXT/UTF8
    Codec ID/Info : UTF-8 Plain Text
    Duration : 1h 57mn
    Bit rate : 31 bps
    Count of elements : 1078
    Stream size : 27.2 KiB (0%)
    Title : English full
    Language : English
    Default : No
    Forced : No
    Text #8
    ID : 14
    Format : UTF-8
    Codec ID : S_TEXT/UTF8
    Codec ID/Info : UTF-8 Plain Text
    Duration : 1h 57mn
    Bit rate : 39 bps
    Count of elements : 1388
    Stream size : 34.3 KiB (0%)
    Title : English SDH
    Language : English
    Default : No
    Forced : No
    Text #9
    ID : 15
    Format : UTF-8
    Codec ID : S_TEXT/UTF8
    Codec ID/Info : UTF-8 Plain Text
    Duration : 1h 57mn
    Bit rate : 68 bps
    Count of elements : 1388
    Stream size : 58.6 KiB (0%)
    Title : English SDH Colored
    Language : English
    Default : No
    Forced : No
    Menu
    00: 00: 00.000 : en: Глава 01
    00: 04: 19.843 : en: Глава 02
    00: 07: 48.927 : en: Глава 03
    00: 11: 47.916 : en: Глава 04
    00: 16: 56.349 : en: Глава 05
    00: 22: 10.663 : en: Глава 06
    00: 29: 00.614 : en: Глава 07
    00: 33: 25.754 : en: Глава 08
    00: 41: 35.493 : en: Глава 09
    00: 47: 02.695 : en: Глава 10
    00: 53: 08.936 : en: Глава 11
    00: 57: 56.807 : en: Глава 12
    01: 05: 02.690 : en: Глава 13
    01: 13: 07.967 : en: Глава 14
    01: 20: 45.591 : en: Глава 15
    01: 27: 29.744 : en: Глава 16
    01: 32: 48.688 : en: Глава 17
    01: 41: 45.850 : en: Глава 18
    01: 49: 35.319 : en: Глава 19
    01: 57: 58.613 : en: Глава 20

    Скриншоты для ознакомления



    Все одноименные релизы в Клубе
    Время раздачи: 24/7 (круглосуточно) (до появления первых 3-5 скачавших)

    Онлайн видео Терминатор: Тёмные судьбы


    Терминатор: Тёмные судьбы/Terminator: Dark Fate (2019) BDRemux [H.264/1080p]

    Терминатор: Тёмные судьбы / Terminator: Dark Fate (2019) BDRemux [H.264 / 1080p] торрент скачать бесплатно
    Рейтинг →
     (голосов: 1, оценка 4/5, голосовать можно 1 раз )

    Другие торренты по теме:

  • Терминатор: Тёмные судьбы / Terminator: Dark Fate (2019) WEB-DLRip [H.264 / 1080p-LQ] [Line, AD]
  • Терминатор: Тёмные судьбы / Terminator: Dark Fate (2019) WEB-DLRip [Line] [AD]
  • Терминатор: Тёмные судьбы / Terminator: Dark Fate (2019) WEBRip [H.264 / 720p-LQ] [Line, AD]
  • Терминатор: Тёмные судьбы / Terminator: Dark Fate (2019) WEBRip [H.264 / 1080p] [EN / EN Sub]
  • Терминатор: Тёмные судьбы / Terminator: Dark Fate (2019) UHD BDRemux [H.265 / 2160p] [4K, HDR, 10-bit]
  • Терминатор: Тёмные судьбы / Terminator: Dark Fate (2019) AC3 5.1 [hand made]
  • Терминатор: Тёмные судьбы / Terminator: Dark Fate (2019) WEBRip [H.264 / 2160p] [4K, SDR, 8-bit] [MVO]
  • Терминатор: Тёмные судьбы / Terminator: Dark Fate (2019) BDRip [H.264 / 720p] [MVO] [PR]


    • Комментарии (0):

      Информация

      Информация

        Посетители, находящиеся в группе Гости, не могут оставлять комментарии в данной новости.

        ↓ Меню




        ↓ Опрос

        Вы добавили сайт в закладки?
        Да
        Нет


        Популярное