.
Авторизация | Регистрация
bitok.xyz
Торрент скачать бесплатно Фильмы торрент скачать Фобия / Phobia (1980) BDRemux [H.264 / 1080p] [VO] торрент скачать бесплатно


    Фобия / Phobia (1980) BDRemux [H.264 / 1080p] [VO] торрент скачать бесплатно

    Дата: 1-02-2020, 05:00 | .torrent скачали: 0

    Фобия / Phobia (1980) BDRemux [H.264 / 1080p] [VO]Производство: Канада/Borough Park Productions
    Жанр: Ужасы, Триллер, Драма
    Режиссер: Джон Хьюстон
    Продюсер: Зэл Магдер, Мэл Бергман, Ларри Шпигель

    Актеры
    Пол Майкл Глейзер, Сьюзэн Хоган, Джон Коликос, Дэвид Болт, Патриция Коллинз, Дэвид Эйснер, Лиза Ланглуа, Роберт О’Ри, Александра Стюарт, Нил Випонд

    Описание

    Доктор Росс проводит на осужденных уголовниках эксперименты на тему ненависти. Но Барбара, которая первая подверглась опыту, становится жертвой припадка. Все другие подопытные также в свою очередь умирают насильственной смертью…

    Рейтинг MPAA: R (лицам до 17 лет обязательно присутствие взрослого)
    Релиз от: R.G. Goldenshara
    Продолжительность: 01: 30: 40
    Качество видео: BDRemux 1080p
    Перевод: Одноголосый любительский (Drunk As Fuck)
    Субтитры: Английские
    Видео: AVC/H.264, 1920x1080 (16: 9), ~34.3 Mbps, 23.976 fps
    Аудио #1: AC3, 2 ch, 192 kbps - Русский
    Аудио #2: DTS-HD MA, 2 ch, 1558 kbps - Английский
    Аудио #3: AC3, 2 ch, 192 kbps - Английский (Комментарии)
    Общее
    Уникальный идентификатор : 205099787903695520201795655711081710783 (0x9A4CC8458AA2EA9188D1D569280D44BF)
    Полное имя : E: Мои рипыФобия.1980.BDRemux.1080p.R.G. Goldenshara.mkv
    Формат : Matroska
    Версия формата : Version 4
    Размер файла : 22, 9 Гбайт
    Продолжительность : 1 ч. 30 м.
    Режим общего битрейта : Переменный
    Общий поток : 36, 2 Мбит/сек
    Дата кодирования : UTC 2020-01-31 12: 54: 05
    Программа кодирования : mkvmerge v6.8.0 (\'Theme for Great Cities\') 64bit built on Mar 2 2014 21: 34: 26
    Библиотека кодирования : libebml v1.3.0 + libmatroska v1.4.1
    Видео
    Идентификатор : 1
    Формат : AVC
    Формат/Информация : Advanced Video Codec
    Профиль формата : High@L4.1
    Настройки формата : CABAC/4 Ref Frames
    Параметр CABAC формата : Да
    Параметр RefFrames формата : 4 кадра
    Идентификатор кодека : V_MPEG4/ISO/AVC
    Продолжительность : 1 ч. 30 м.
    Вид битрейта : Переменный
    Максимальный битрейт : 38, 0 Мбит/сек
    Ширина : 1920 пикселей
    Высота : 1080 пикселей
    Соотношение сторон : 16: 9
    Режим частоты кадров : Постоянный
    Частота кадров : 23, 976 (24000/1001) кадра/сек
    Цветовое пространство : YUV
    Субдискретизация насыщенности : 4: 2: 0
    Битовая глубина : 8 бит
    Тип развёртки : Прогрессивная
    Язык : English
    Default : Да
    Forced : Нет
    Аудио #1
    Идентификатор : 2
    Формат : AC-3
    Формат/Информация : Audio Coding 3
    Коммерческое название : Dolby Digital
    Идентификатор кодека : A_AC3
    Продолжительность : 1 ч. 30 м.
    Вид битрейта : Постоянный
    Битрейт : 192 Кбит/сек
    Каналы : 2 канала
    ChannelLayout : L R
    Частота : 48, 0 КГц
    Частота кадров : 31, 250 кадров/сек (1536 SPF)
    Метод сжатия : С потерями
    Размер потока : 125 Мбайт (1%)
    Заголовок : VO Drunk As Fuck
    Язык : Russian
    ServiceKind/String : Complete Main
    Default : Да
    Forced : Нет
    Аудио #2
    Идентификатор : 3
    Формат : DTS XLL
    Формат/Информация : Digital Theater Systems
    Коммерческое название : DTS-HD Master Audio
    Идентификатор кодека : A_DTS
    Продолжительность : 1 ч. 30 м.
    Вид битрейта : Переменный
    Каналы : 2 канала
    ChannelLayout : L R
    Частота : 48, 0 КГц
    Частота кадров : 93, 750 кадра/сек (512 SPF)
    Битовая глубина : 16 бит
    Метод сжатия : Без потерь
    Язык : English
    Default : Нет
    Forced : Нет
    Аудио #3
    Идентификатор : 4
    Формат : AC-3
    Формат/Информация : Audio Coding 3
    Коммерческое название : Dolby Digital
    Идентификатор кодека : A_AC3
    Продолжительность : 1 ч. 30 м.
    Вид битрейта : Постоянный
    Битрейт : 192 Кбит/сек
    Каналы : 2 канала
    ChannelLayout : L R
    Частота : 48, 0 КГц
    Частота кадров : 31, 250 кадров/сек (1536 SPF)
    Метод сжатия : С потерями
    Размер потока : 125 Мбайт (1%)
    Заголовок : Комментарии
    Язык : English
    ServiceKind/String : Complete Main
    Default : Нет
    Forced : Нет
    Текст
    Идентификатор : 5
    Формат : UTF-8
    Идентификатор кодека : S_TEXT/UTF8
    Идентификатор кодека/Информация : UTF-8 Plain Text
    Язык : English
    Default : Нет
    Forced : Нет
    Меню
    00: 00: 00.000 : en: Chapter 1
    00: 11: 04.872 : en: Chapter 2
    00: 23: 18.688 : en: Chapter 3
    00: 30: 40.296 : en: Chapter 4
    00: 42: 38.847 : en: Chapter 5
    00: 56: 03.568 : en: Chapter 6
    01: 06: 46.877 : en: Chapter 7
    01: 17: 15.130 : en: Chapter 8


    Онлайн видео Фобия


    Фобия/Phobia (1980) BDRemux [H.264/1080p] [VO]

    Фобия / Phobia (1980) BDRemux [H.264 / 1080p] [VO] торрент скачать бесплатно
    Рейтинг →
     (голосов: 1, оценка 5/5, голосовать можно 1 раз )

    Другие торренты по теме:

  • Wi-Fi фобия (2017) HDTVRip
  • Фобия / Haunted (2017) WEBRip


    • Комментарии (0):

      Информация

      Информация

        Посетители, находящиеся в группе Гости, не могут оставлять комментарии в данной новости.

        ↓ Меню




        ↓ Опрос

        Вы добавили сайт в закладки?
        Да
        Нет


        Популярное