.
Авторизация | Регистрация
bitok.xyz
Торрент скачать бесплатно Фильмы торрент скачать Не брать живым / Green Zone (2010) WEB-DL [H.264 / 1080p] [Open Matte] торрент скачать бесплатно


    Не брать живым / Green Zone (2010) WEB-DL [H.264 / 1080p] [Open Matte] торрент скачать бесплатно

    Дата: 1-02-2020, 05:00 | .torrent скачали: 0

    Не брать живым / Green Zone (2010) WEB-DL [H.264 / 1080p] [Open Matte]Производство: Великобритания, Франция, Испания, США/Universal Pictures, StudioCanal, Relativity Media
    Жанр: боевик, триллер, драма, военный
    Режиссер: Пол Гринграсс

    Актеры
    Мэтт Дэймон, Грег Киннер, Брендан Глисон, Халид Абдалла, Джейсон Айзекс, Эми Райан, Саид Фарадж, Никойе Бэнкс, Йигал Наор, Эдуард Х. Р. Глюк

    Описание

    В Зелёной зоне оккупированного Ирака — территории, находящейся под контролем армии Соединенных Штатов — агенты ЦРУ тщетно ищут следы оружия массового поражения. Необъективность расследования становится очевидной офицеру Рою Миллеру, попытавшемуся предать огласке полученные результаты. Но как далеко могут зайти генералы, решившие во что бы то ни стало навести порядок в нестабильном регионе?

    Возраст: 16+ (зрителям, достигшим 16 лет)
    Рейтинг MPAA: R (лицам до 17 лет обязательно присутствие взрослого)
    Продолжительность: 01: 54: 47
    Качество видео: WEB-DL
    Перевод: Дублированный, авторский
    Субтитры: русские, английские
    Видео: AVC/H.264, 1920x1080, 23.976 fps, 13.0 Mbps
    Аудио 1: AC3, 6 ch, 448 kbps - Русский (DUB)
    Аудио 2: AC3, 6 ch, 448 kbps - Русский (AVO Сербин)
    Аудио 3: E-AC3, 6 ch, 640 kbps - Английский
    General
    Unique ID : 225217602939577825386265269779071714054 (0xA96F552206A48D4A86A99F65969F4306)
    Complete name : D: Green Zone (2010) Open Matte 1080p.mkv
    Format : Matroska
    Format version : Version 4
    File size : 11.6 GiB
    Duration : 1 h 54 min
    Overall bit rate : 14.5 Mb/s
    Encoded date : UTC 2020-01-31 15: 41: 43
    Writing application : mkvmerge v8.3.0 (\'Over the Horizon\') 32bit
    Writing library : libebml v1.3.1 + libmatroska v1.4.2
    Video
    ID : 1
    Format : AVC
    Format/Info : Advanced Video Codec
    Format profile : High@L4
    Format settings : CABAC/4 Ref Frames
    Format settings, CABAC : Yes
    Format settings, Reference : 4 frames
    Codec ID : V_MPEG4/ISO/AVC
    Duration : 1 h 54 min
    Bit rate : 13.0 Mb/s
    Width : 1 920 pixels
    Height : 1 080 pixels
    Display aspect ratio : 16: 9
    Frame rate mode : Constant
    Frame rate : 23.976 (24000/1001) FPS
    Color space : YUV
    Chroma subsampling : 4: 2: 0
    Bit depth : 8 bits
    Scan type : Progressive
    Bits/(Pixel*Frame) : 0.261
    Stream size : 10.4 GiB (89%)
    Default : Yes
    Forced : No
    Color range : Limited
    Color primaries : BT.709
    Transfer characteristics : BT.709
    Matrix coefficients : BT.709
    Audio #1
    ID : 2
    Format : AC-3
    Format/Info : Audio Coding 3
    Commercial name : Dolby Digital
    Codec ID : A_AC3
    Duration : 1 h 54 min
    Bit rate mode : Constant
    Bit rate : 448 kb/s
    Channel(s) : 6 channels
    Channel layout : L R C LFE Ls Rs
    Sampling rate : 48.0 kHz
    Frame rate : 31.250 FPS (1536 SPF)
    Bit depth : 16 bits
    Compression mode : Lossy
    Stream size : 368 MiB (3%)
    Title : DUB
    Language : Russian
    Service kind : Complete Main
    Default : Yes
    Forced : No
    Audio #2
    ID : 3
    Format : AC-3
    Format/Info : Audio Coding 3
    Commercial name : Dolby Digital
    Codec ID : A_AC3
    Duration : 1 h 54 min
    Bit rate mode : Constant
    Bit rate : 448 kb/s
    Channel(s) : 6 channels
    Channel layout : L R C LFE Ls Rs
    Sampling rate : 48.0 kHz
    Frame rate : 31.250 FPS (1536 SPF)
    Bit depth : 16 bits
    Compression mode : Lossy
    Stream size : 368 MiB (3%)
    Title : AVO Сербин
    Language : Russian
    Service kind : Complete Main
    Default : No
    Forced : No
    Audio #3
    ID : 4
    Format : E-AC-3
    Format/Info : Enhanced AC-3
    Commercial name : Dolby Digital Plus
    Codec ID : A_EAC3
    Duration : 1 h 54 min
    Bit rate mode : Constant
    Bit rate : 640 kb/s
    Channel(s) : 6 channels
    Channel layout : L R C LFE Ls Rs
    Sampling rate : 48.0 kHz
    Frame rate : 31.250 FPS (1536 SPF)
    Compression mode : Lossy
    Stream size : 525 MiB (4%)
    Language : English
    Service kind : Complete Main
    Default : No
    Forced : No
    Text #1
    ID : 5
    Format : UTF-8
    Codec ID : S_TEXT/UTF8
    Codec ID/Info : UTF-8 Plain Text
    Duration : 1 h 44 min
    Bit rate : 111 b/s
    Count of elements : 1255
    Stream size : 84.7 KiB (0%)
    Language : Russian
    Default : No
    Forced : No
    Text #2
    ID : 6
    Format : UTF-8
    Codec ID : S_TEXT/UTF8
    Codec ID/Info : UTF-8 Plain Text
    Duration : 1 h 42 min
    Bit rate : 62 b/s
    Count of elements : 1273
    Stream size : 46.5 KiB (0%)
    Language : English
    Default : No
    Forced : No


    Онлайн видео Не брать живым


    Не брать живым/Green Zone (2010) WEB-DL [H.264/1080p] [Open Matte]

    Не брать живым / Green Zone (2010) WEB-DL [H.264 / 1080p] [Open Matte] торрент скачать бесплатно
    Рейтинг →
     (голосов: 1, оценка 5/5, голосовать можно 1 раз )

    Другие торренты по теме:

  • Не брать живым / Green Zone (2010) BDRip [H.264 / 720p]


    • Комментарии (0):

      Информация

      Информация

        Посетители, находящиеся в группе Гости, не могут оставлять комментарии в данной новости.

        ↓ Меню




        ↓ Опрос

        Вы добавили сайт в закладки?
        Да
        Нет


        Популярное