.
Авторизация | Регистрация
bitok.xyz
Торрент скачать бесплатно Фильмы торрент скачать Уличный боец / Street Fighter (1994) WEB-DL [H.264 / 1080p] [Open Matte] торрент скачать бесплатно


    Уличный боец / Street Fighter (1994) WEB-DL [H.264 / 1080p] [Open Matte] торрент скачать бесплатно

    Дата: 1-02-2020, 05:00 | .torrent скачали: 0

    Уличный боец / Street Fighter (1994) WEB-DL [H.264 / 1080p] [Open Matte]Производство: США, Япония/Capcom Entertainment
    Жанр: фантастика, боевик, комедия, приключения
    Режиссер: Стивен Е. де Соуза

    Актеры
    Жан-Клод Ван Дамм, Рауль Хулиа, Минг-На, Дэмиан Чапа, Кайли Миноуг, Саймон Кэллоу, Рошан Сет, Уэс Студи, Байрон Манн, Гранд Л. Буш

    Описание

    Сумасшедший диктатор — злобный и довольно настырный психопат захватывает в заложники ни в чем не повинных людей, требуя выкуп в миллионы долларов. Единственный, кому по силам справиться с ним — бесстрашный полковник Уильям Гайл, на долю которого выпадает опасная миссия — разыскать тайный штаб неудавшегося Властителя мира и победить его.
    На помощь отважному бойцу приходят лишь несколько друзей — они не похожи друг на друга, но их объединяет одно — они верят в себя и готовы идти до конца.

    Возраст: 12+ (зрителям, достигшим 12 лет)
    Рейтинг MPAA: PG-13 (детям до 13 лет просмотр нежелателен)
    Продолжительность: 01: 41: 38
    Качество видео: WEB-DL 1080p
    Перевод: Дублированный, многоголосый, двухголосый, авторский
    Субтитры: русские, английские
    Видео: AVC/H.264, 1920x1080 (16: 9), 23.976 fps, 13.8 Mbps
    Аудио 1: AC3, 2 ch, 256 kbps - Русский (DUB)
    Аудио 2: AC3, 6 ch, 448 kbps - Русский (MVO)
    Аудио 3: AC3, 6 ch, 448 kbps - Русский (MVO НТВ)
    Аудио 4: AC3, 2 ch, 192 kbps - Русский (MVO СТС)
    Аудио 5: AC3, 2 ch, 192 kbps - Русский (MVO РТР)
    Аудио 6: AC3, 6 ch, 448 kbps - Русский (AVO Гаврилов)
    Аудио 7: AC3, 2 ch, 192 kbps - Русский (AVO Визгунов)
    Аудио 8: E-AC3, 6 ch, 640 kbps - Английский
    General
    Unique ID : 172089977209666167139169808893058584814 (0x817752F337A03B7F89702C107E2190EE)
    Complete name : D: Street Fighter (1994) Open Matte 1080p.mkv
    Format : Matroska
    Format version : Version 4
    File size : 11.8 GiB
    Duration : 1 h 41 min
    Overall bit rate : 16.6 Mb/s
    Encoded date : UTC 2020-01-29 18: 51: 55
    Writing application : mkvmerge v8.3.0 (\'Over the Horizon\') 32bit
    Writing library : libebml v1.3.1 + libmatroska v1.4.2
    Video
    ID : 1
    Format : AVC
    Format/Info : Advanced Video Codec
    Format profile : High@L4
    Format settings : CABAC/4 Ref Frames
    Format settings, CABAC : Yes
    Format settings, Reference : 4 frames
    Codec ID : V_MPEG4/ISO/AVC
    Duration : 1 h 41 min
    Bit rate : 13.8 Mb/s
    Width : 1 920 pixels
    Height : 1 080 pixels
    Display aspect ratio : 16: 9
    Frame rate mode : Constant
    Frame rate : 23.976 (24000/1001) FPS
    Color space : YUV
    Chroma subsampling : 4: 2: 0
    Bit depth : 8 bits
    Scan type : Progressive
    Bits/(Pixel*Frame) : 0.277
    Stream size : 9.75 GiB (83%)
    Default : Yes
    Forced : No
    Color range : Limited
    Color primaries : BT.709
    Transfer characteristics : BT.709
    Matrix coefficients : BT.709
    Audio #1
    ID : 2
    Format : AC-3
    Format/Info : Audio Coding 3
    Commercial name : Dolby Digital
    Codec ID : A_AC3
    Duration : 1 h 41 min
    Bit rate mode : Constant
    Bit rate : 256 kb/s
    Channel(s) : 2 channels
    Channel layout : L R
    Sampling rate : 48.0 kHz
    Frame rate : 31.250 FPS (1536 SPF)
    Bit depth : 16 bits
    Compression mode : Lossy
    Stream size : 186 MiB (2%)
    Title : DUB
    Language : Russian
    Service kind : Complete Main
    Default : Yes
    Forced : No
    Audio #2
    ID : 3
    Format : AC-3
    Format/Info : Audio Coding 3
    Commercial name : Dolby Digital
    Codec ID : A_AC3
    Duration : 1 h 41 min
    Bit rate mode : Constant
    Bit rate : 448 kb/s
    Channel(s) : 6 channels
    Channel layout : L R C LFE Ls Rs
    Sampling rate : 48.0 kHz
    Frame rate : 31.250 FPS (1536 SPF)
    Bit depth : 16 bits
    Compression mode : Lossy
    Stream size : 326 MiB (3%)
    Title : MVO
    Language : Russian
    Service kind : Complete Main
    Default : No
    Forced : No
    Audio #3
    ID : 4
    Format : AC-3
    Format/Info : Audio Coding 3
    Commercial name : Dolby Digital
    Codec ID : A_AC3
    Duration : 1 h 41 min
    Bit rate mode : Constant
    Bit rate : 448 kb/s
    Channel(s) : 6 channels
    Channel layout : L R C LFE Ls Rs
    Sampling rate : 48.0 kHz
    Frame rate : 31.250 FPS (1536 SPF)
    Bit depth : 16 bits
    Compression mode : Lossy
    Stream size : 325 MiB (3%)
    Title : MVO НТВ
    Language : Russian
    Service kind : Complete Main
    Default : No
    Forced : No
    Audio #4
    ID : 5
    Format : AC-3
    Format/Info : Audio Coding 3
    Commercial name : Dolby Digital
    Codec ID : A_AC3
    Duration : 1 h 41 min
    Bit rate mode : Constant
    Bit rate : 192 kb/s
    Channel(s) : 2 channels
    Channel layout : L R
    Sampling rate : 48.0 kHz
    Frame rate : 31.250 FPS (1536 SPF)
    Bit depth : 16 bits
    Compression mode : Lossy
    Stream size : 139 MiB (1%)
    Title : MVO СТС
    Language : Russian
    Service kind : Complete Main
    Default : No
    Forced : No
    Audio #5
    ID : 6
    Format : AC-3
    Format/Info : Audio Coding 3
    Commercial name : Dolby Digital
    Codec ID : A_AC3
    Duration : 1 h 41 min
    Bit rate mode : Constant
    Bit rate : 192 kb/s
    Channel(s) : 2 channels
    Channel layout : L R
    Sampling rate : 48.0 kHz
    Frame rate : 31.250 FPS (1536 SPF)
    Bit depth : 16 bits
    Compression mode : Lossy
    Stream size : 139 MiB (1%)
    Title : MVO РТР
    Language : Russian
    Service kind : Complete Main
    Default : No
    Forced : No
    Audio #6
    ID : 7
    Format : AC-3
    Format/Info : Audio Coding 3
    Commercial name : Dolby Digital
    Codec ID : A_AC3
    Duration : 1 h 41 min
    Bit rate mode : Constant
    Bit rate : 448 kb/s
    Channel(s) : 6 channels
    Channel layout : L R C LFE Ls Rs
    Sampling rate : 48.0 kHz
    Frame rate : 31.250 FPS (1536 SPF)
    Bit depth : 16 bits
    Compression mode : Lossy
    Stream size : 326 MiB (3%)
    Title : AVO Гаврилов
    Language : Russian
    Service kind : Complete Main
    Default : No
    Forced : No
    Audio #7
    ID : 8
    Format : AC-3
    Format/Info : Audio Coding 3
    Commercial name : Dolby Digital
    Codec ID : A_AC3
    Duration : 1 h 41 min
    Bit rate mode : Constant
    Bit rate : 192 kb/s
    Channel(s) : 2 channels
    Channel layout : L R
    Sampling rate : 48.0 kHz
    Frame rate : 31.250 FPS (1536 SPF)
    Bit depth : 16 bits
    Compression mode : Lossy
    Stream size : 139 MiB (1%)
    Title : AVO Визгунов
    Language : Russian
    Service kind : Complete Main
    Default : No
    Forced : No
    Audio #8
    ID : 9
    Format : E-AC-3
    Format/Info : Enhanced AC-3
    Commercial name : Dolby Digital Plus
    Codec ID : A_EAC3
    Duration : 1 h 41 min
    Bit rate mode : Constant
    Bit rate : 640 kb/s
    Channel(s) : 6 channels
    Channel layout : L R C LFE Ls Rs
    Sampling rate : 48.0 kHz
    Frame rate : 31.250 FPS (1536 SPF)
    Compression mode : Lossy
    Stream size : 465 MiB (4%)
    Language : English
    Service kind : Complete Main
    Default : No
    Forced : No
    Text #1
    ID : 10
    Format : UTF-8
    Codec ID : S_TEXT/UTF8
    Codec ID/Info : UTF-8 Plain Text
    Duration : 1 h 40 min
    Bit rate : 58 b/s
    Count of elements : 618
    Stream size : 43.0 KiB (0%)
    Language : Russian
    Default : No
    Forced : No
    Text #2
    ID : 11
    Format : UTF-8
    Codec ID : S_TEXT/UTF8
    Codec ID/Info : UTF-8 Plain Text
    Duration : 1 h 40 min
    Bit rate : 50 b/s
    Count of elements : 1125
    Stream size : 37.3 KiB (0%)
    Language : English
    Default : No
    Forced : No


    Онлайн видео Уличный боец


    Уличный боец/Street Fighter (1994) WEB-DL [H.264/1080p] [Open Matte]

    Уличный боец / Street Fighter (1994) WEB-DL [H.264 / 1080p] [Open Matte] торрент скачать бесплатно
    Рейтинг →
     (голосов: 1, оценка 5/5, голосовать можно 1 раз )

    Другие торренты по теме:

  • Уличный боец / Street Fighter (1994) BDRemux [1080p]


    • Комментарии (0):

      Информация

      Информация

        Посетители, находящиеся в группе Гости, не могут оставлять комментарии в данной новости.

        ↓ Меню




        ↓ Опрос

        Вы добавили сайт в закладки?
        Да
        Нет


        Популярное