.
Авторизация | Регистрация
bitok.xyz
Торрент скачать бесплатно Фильмы торрент скачать Первый мститель: Другая война / Captain America: The Winter Soldier (2014) BDRip [H.265 / 1080p] [10-bit] торрент скачать бесплатно


    Первый мститель: Другая война / Captain America: The Winter Soldier (2014) BDRip [H.265 / 1080p] [10-bit] торрент скачать бесплатно

    Дата: 1-02-2020, 05:00 | .torrent скачали: 0

    Первый мститель: Другая война / Captain America: The Winter Soldier (2014) BDRip [H.265 / 1080p] [10-bit]Производство: США/Marvel Entertainment, Marvel Studios, Walt Disney Pictures
    Жанр: фантастика, боевик, приключения
    Режиссер: Энтони Руссо, Джо Руссо

    Актеры
    Крис Эванс, Скарлетт Йоханссон, Энтони Маки, Себастиан Стэн, Сэмюэл Л. Джексон, Роберт Редфорд, Фрэнк Грилло, Коби Смолдерс, Эмили ВанКэмп, Максимилиано Эрнандес

    Описание
    После беспрецедентных событий, впервые собравших вместе команду Мстителей, Стив Роджерс, известный также как Капитан Америка, оседает в Вашингтоне и пытается приспособиться к жизни в современном мире. Но покой этому герою только снится — пытаясь помочь коллеге из агентства Щ. И. Т., Стив оказывается в центре событий, грозящих катастрофой мирового масштаба. Для того, чтобы разоблачить злодейский заговор, Капитан Америка объединяется с Черной вдовой. К ним также присоединяется новый соратник, известный как Сокол, однако никто из них даже не подозревает, на что способен новый враг.

    Возраст: 12+ (зрителям, достигшим 12 лет)
    Рейтинг MPAA: PG-13 (детям до 13 лет просмотр нежелателен)
    Релиз от: OldGamer
    Продолжительность: 02: 15: 53
    Качество видео: BDRip
    Перевод: Дублированный (Лицензия)
    Субтитры: Русские (форсированные, полные), английские (форсированные, SDH)
    Видео: HEVC/H.265, 1920x800, ~7440 Kbps
    Аудио 1: AC3, 6 ch, 640 Kbps - Русский, дублированный
    Аудио 2: AC3, 6 ch, 640 Kbps - Английский
    Общее
    Полное имя : R: 9.Первый.мститель.Другая.война.Captain.America.The.Winter.Soldier.2014.BDRip-HEVC.1080p.mkv
    Формат : Matroska
    Версия формата : Version 4/Version 2
    Размер файла : 8, 45 Гбайт
    Продолжительность : 2 ч. 15 м.
    Общий поток : 8898 Кбит/сек
    Название фильма : Первый мститель/Первый мститель: Другая война
    Тип содержимого : Movie
    Дата выпуска : 2014-04-03
    Программа кодирования : mkvmerge v42.0.0 (\'Overtime\') 64-bit
    Библиотека кодирования : libebml v1.3.10 + libmatroska v1.5.2
    Обложка : Yes
    Attachments : cover.jpg
    DATE_RECORDED : 2014-04-03
    DIRECTOR : Энтони Руссо Джо Руссо
    GENRE : Научная фантастика и фэнтези
    LAW_RATING : 12+
    RATING : 12+
    SYNOPSIS : После беспрецедентных событий, впервые собравших вместе команду Мстителей, Стив Роджерс, известный также как Капитан Америка, оказывается в Вашингтоне. Пути Мстителей разошлись, но Стив продолжает службу в агентстве Щ.И.Т., и одновременно - пытается приспособиться к жизни в современном мире. Вскоре Стив оказывается в центре событий, которые могут обернуться катастрофой мирового масштаба. Для того, чтобы разоблачить злодейский заговор, легендарный Капитан Америка объединяет силы с очаровательным супер-агентом Наташей Романофф по прозвищу Черная вдова. К ним присоединится и новый соратник, известный как Сокол, однако, никто из них даже не подозревает, на что способен их новый противник.
    Видео
    Идентификатор : 1
    Формат : HEVC
    Формат/Информация : High Efficiency Video Coding
    Профиль формата : Main10@L4.1@High
    Идентификатор кодека : V_MPEGH/ISO/HEVC
    Продолжительность : 2 ч. 15 м.
    Битрейт : 7440 Кбит/сек
    Ширина : 1920 пикселей
    Высота : 800 пикселей
    Соотношение сторон : 2, 40: 1
    Режим частоты кадров : Постоянный
    Частота кадров : 23, 976 (24000/1001) кадра/сек
    Цветовое пространство : YUV
    Субдискретизация насыщенности : 4: 2: 0
    Битовая глубина : 10 бит
    Бит/(Пиксели*Кадры) : 0.202
    Размер потока : 7, 06 Гбайт (84%)
    Заголовок : Captain America The Winter Soldier/Rip by OldGamer
    Библиотека кодирования : x265 2.9+15-81373aab81df: WindowsGCC 8.2.064 bit 10bit
    Настройки программы : cpuid=1111039/frame-threads=4/numa-pools=16/wpp/no-pmode/no-pme/no-psnr/no-ssim/log-level=2/input-csp=1/input-res=1920x800/interlace=0/total-frames=195481/level-idc=41/high-tier=1/uhd-bd=0/ref=5/no-allow-non-conformance/no-repeat-t_heads/annexb/no-aud/no-hrd/info/hash=0/no-temporal-layers/open-gop/min-keyint=23/keyint=240/gop-lookahead=0/bframes=16/b-adapt=2/b-pyramid/bframe-bias=0/rc-lookahead=80/lookahead-slices=0/scenecut=40/radl=0/no-splice/no-intra-refresh/ctu=64/min-cu-size=8/rect/amp/max-tu-size=32/tu-inter-depth=4/tu-intra-depth=4/limit-tu=1/rdoq-level=2/dynamic-rd=0.00/no-ssim-rd/signhide/no-tskip/nr-intra=0/nr-inter=0/no-constrained-intra/no-strong-intra-smoothing/max-merge=5/limit-refs=3/limit-modes/me=3/subme=7/merange=57/temporal-mvp/weightp/weightb/no-analyze-src-pics/deblock=-3: -3/no-sao/no-sao-non-deblock/rd=6/no-early-skip/rskip/no-fast-intra/no-tskip-fast/no-cu-lossless/b-intra/no-splitrd-skip/rdpenalty=0/psy-rd=2.00/psy-rdoq=1.00/no-rd-refine/no-lossless/cbqpoffs=0/crqpoffs=0/rc=crf/crf=19.7/qcomp=0.75/qpstep=4/stats-write=0/stats-read=0/vbv-maxrate=50000/vbv-bufsize=50000/vbv-init=0.9/crf-max=0.0/crf-min=0.0/ipratio=1.40/pbratio=1.30/aq-mode=2/aq-strength=0.80/no-cutree/zone-count=1/zones: /start-frame=186666/end-frame=194260/qp=36/no-strict-cbr/qg-size=32/no-rc-grain/qpmax=69/qpmin=0/no-const-vbv/sar=1/overscan=0/videoformat=5/range=0/colorprim=2/transfer=2/colormatrix=2/chromaloc=0/display-window=0/max-cll=0, 0/min-luma=0/max-luma=1023/log2-max-poc-lsb=8/vui-timing-info/vui-hrd-info/slices=1/no-opt-qp-pps/no-opt-ref-list-length-pps/no-multi-pass-opt-rps/scenecut-bias=0.00/no-opt-cu-delta-qp/no-aq-motion/no-hdr/no-hdr-opt/no-dhdr10-opt/no-idr-recovery-sei/analysis-reuse-level=5/scale-factor=0/refine-intra=0/refine-inter=0/refine-mv=0/no-limit-sao/ctu-info=0/no-lowpass-dct/refine-mv-type=0/copy-pic=1/max-ausize-factor=1.0/no-dynamic-refine/no-single-sei
    Язык : English
    Default : Да
    Forced : Нет
    Statistics Tags Issue : mkvmerge v42.0.0 (\'Overtime\') 64-bit 2020-01-17 13: 40: 35/mkvmerge v42.0.0 (\'Overtime\') 64-bit
    FromStats_BitRate : 7613964
    FromStats_Duration : 02: 15: 53.187000000
    FromStats_FrameCount : 195481
    FromStats_StreamSize : 7759760049
    Аудио #1
    Идентификатор : 2
    Формат : AC-3
    Формат/Информация : Audio Coding 3
    Идентификатор кодека : A_AC3
    Продолжительность : 2 ч. 15 м.
    Вид битрейта : Постоянный
    Битрейт : 640 Кбит/сек
    Каналы : 6 каналов
    Расположение каналов : Front: L C R, Side: L R, LFE
    Частота : 48, 0 КГц
    Частота кадров : 31, 250 кадров/сек (1536 SPF)
    Битовая глубина : 16 бит
    Метод сжатия : С потерями
    Размер потока : 622 Мбайт (7%)
    Язык : Russian
    ServiceKind/String : Complete Main
    Default : Да
    Forced : Нет
    Statistics Tags Issue : mkvmerge v42.0.0 (\'Overtime\') 64-bit 2020-01-17 13: 40: 35/mkvmerge v42.0.0 (\'Overtime\') 64-bit
    FromStats_BitRate : 640000
    FromStats_Duration : 02: 15: 54.208000000
    FromStats_FrameCount : 254819
    FromStats_StreamSize : 652336640
    Аудио #2
    Идентификатор : 3
    Формат : AC-3
    Формат/Информация : Audio Coding 3
    Идентификатор кодека : A_AC3
    Продолжительность : 2 ч. 15 м.
    Вид битрейта : Постоянный
    Битрейт : 640 Кбит/сек
    Каналы : 6 каналов
    Расположение каналов : Front: L C R, Side: L R, LFE
    Частота : 48, 0 КГц
    Частота кадров : 31, 250 кадров/сек (1536 SPF)
    Битовая глубина : 16 бит
    Метод сжатия : С потерями
    Размер потока : 622 Мбайт (7%)
    Язык : English
    ServiceKind/String : Complete Main
    Default : Нет
    Forced : Нет
    Statistics Tags Issue : mkvmerge v42.0.0 (\'Overtime\') 64-bit 2020-01-17 13: 40: 35/mkvmerge v42.0.0 (\'Overtime\') 64-bit
    FromStats_BitRate : 640000
    FromStats_Duration : 02: 15: 54.208000000
    FromStats_FrameCount : 254819
    FromStats_StreamSize : 652336640
    Текст #1
    Идентификатор : 4
    Формат : UTF-8
    Идентификатор кодека : S_TEXT/UTF8
    Идентификатор кодека/Информация : UTF-8 Plain Text
    Заголовок : Forced
    Язык : Russian
    Default : Нет
    Forced : Нет
    Statistics Tags Issue : mkvmerge v42.0.0 (\'Overtime\') 64-bit 2020-01-17 13: 40: 35/mkvmerge v42.0.0 (\'Overtime\') 64-bit
    FromStats_BitRate : 1
    FromStats_Duration : 02: 12: 17.471000000
    FromStats_FrameCount : 38
    FromStats_StreamSize : 1452
    Текст #2
    Идентификатор : 5
    Формат : UTF-8
    Идентификатор кодека : S_TEXT/UTF8
    Идентификатор кодека/Информация : UTF-8 Plain Text
    Заголовок : Full
    Язык : Russian
    Default : Нет
    Forced : Нет
    Statistics Tags Issue : mkvmerge v42.0.0 (\'Overtime\') 64-bit 2020-01-17 13: 40: 35/mkvmerge v42.0.0 (\'Overtime\') 64-bit
    FromStats_BitRate : 66
    FromStats_Duration : 02: 14: 59.341000000
    FromStats_FrameCount : 1542
    FromStats_StreamSize : 67653
    Текст #3
    Идентификатор : 6
    Формат : UTF-8
    Идентификатор кодека : S_TEXT/UTF8
    Идентификатор кодека/Информация : UTF-8 Plain Text
    Заголовок : Forced
    Язык : English
    Default : Нет
    Forced : Нет
    Statistics Tags Issue : mkvmerge v42.0.0 (\'Overtime\') 64-bit 2020-01-17 13: 40: 35/mkvmerge v42.0.0 (\'Overtime\') 64-bit
    FromStats_BitRate : 1
    FromStats_Duration : 01: 12: 17.082000000
    FromStats_FrameCount : 28
    FromStats_StreamSize : 692
    Текст #4
    Идентификатор : 7
    Формат : UTF-8
    Идентификатор кодека : S_TEXT/UTF8
    Идентификатор кодека/Информация : UTF-8 Plain Text
    Заголовок : SDH
    Язык : English
    Default : Нет
    Forced : Нет
    Statistics Tags Issue : mkvmerge v42.0.0 (\'Overtime\') 64-bit 2020-01-17 13: 40: 35/mkvmerge v42.0.0 (\'Overtime\') 64-bit
    FromStats_BitRate : 53
    FromStats_Duration : 02: 08: 53.767000000
    FromStats_FrameCount : 1646
    FromStats_StreamSize : 51756
    Меню
    00: 00: 00.000 : en: (01)00: 00: 00: 000
    00: 03: 28.666 : en: (02)00: 03: 28: 666
    00: 13: 31.727 : en: (03)00: 13: 31: 727
    00: 17: 57.868 : en: (04)00: 17: 57: 868
    00: 22: 25.302 : en: (05)00: 22: 25: 302
    00: 33: 20.415 : en: (06)00: 33: 20: 415
    00: 41: 27.276 : en: (07)00: 41: 27: 276
    00: 51: 37.302 : en: (08)00: 51: 37: 302
    00: 58: 23.958 : en: (09)00: 58: 23: 958
    01: 07: 40.347 : en: (10)01: 07: 40: 347
    01: 16: 22.202 : en: (11)01: 16: 22: 202
    01: 24: 43.078 : en: (12)01: 24: 43: 078
    01: 32: 17.698 : en: (13)01: 32: 17: 698
    01: 37: 06.612 : en: (14)01: 37: 06: 612
    01: 49: 13.088 : en: (15)01: 49: 13: 088
    01: 55: 03.730 : en: (16)01: 55: 03: 730
    02: 01: 11.055 : en: (17)02: 01: 11: 055
    02: 06: 22.241 : en: (18)02: 06: 22: 241
    02: 15: 53.937 : en: (19)02: 15: 53: 937


    Онлайн видео Первый мститель: Другая война


    Первый мститель: Другая война/Captain America: The Winter Soldier (2014) BDRip [H.265/1080p] [10-bit]

    Первый мститель: Другая война / Captain America: The Winter Soldier (2014) BDRip [H.265 / 1080p] [10-bit] торрент скачать бесплатно
    Рейтинг →
     (голосов: 1, оценка 5/5, голосовать можно 1 раз )

    Другие торренты по теме:

  • Первый мститель / Captain America: The First Avenger (2011) BDRip [AVO] скачать через торрент бесплатно
  • Первый мститель: Другая война / Captain America: The Winter Soldier (2014) HDRip [AVO] скачать через торрент бесплатно
  • Первый мститель: Дилогия / Captain America: Dilogy (2011, 2014) BDRip [H.264 / 720p] [hand made 60fps] скачать через торрент бесплатно
  • Первый мститель: Противостояние / Captain America: Civil War (2016) WEBRip [H.264 / 1080p] [Трейлер] скачать через торрент бесплатно
  • Первый мститель: Противостояние / Captain America: Civil War (2016) DCPRip [2К] [Hi10P, Hi444PP] [Трейлер A] скачать через торрент бесплатно
  • Первый мститель: Противостояние / Captain America: Civil War (2016) [H.264 / 1080p] [Трейлер#2]
  • Henry Jackman - Первый мститель Противостояние / Captain America: Civil War (Original Motion Picture Soundtrack) (2016) [MP3|320 кб / с]<Soundtrack>
  • Henry Jackman - Первый Мститель Противостояние / Captain America: Civil War (Original Motion Picture Soundtrack) (2016) [FLAC|Lossless|WEB-DL|tracks]<Soundtrack>


    • Комментарии (0):

      Информация

      Информация

        Посетители, находящиеся в группе Гости, не могут оставлять комментарии в данной новости.

        ↓ Меню




        ↓ Опрос

        Вы добавили сайт в закладки?
        Да
        Нет


        Популярное