.
Авторизация | Регистрация
bitok.xyz
Торрент скачать бесплатно Фильмы торрент скачать Хостел 2 / Hostel: Part II (2007) BDRip [H.265 / 1080p] [10-bit] торрент скачать бесплатно


    Хостел 2 / Hostel: Part II (2007) BDRip [H.265 / 1080p] [10-bit] торрент скачать бесплатно

    Дата: 1-02-2020, 05:00 | .torrent скачали: 0

    Хостел 2 / Hostel: Part II (2007) BDRip [H.265 / 1080p] [10-bit]Производство: США, Чехия/Lionsgate, Screen Gems, Next Entertainment
    Жанр: ужасы, триллер
    Режиссер: Элай Рот

    Актеры
    Лоурен Герман, Роджер Барт, Хизер Матараццо, Бижу Филлипс, Ричард Берджи, Вера Йорданова, Джей Эрнандез, Джордан Лэдд, Эдвиг Фенеч, Станислав Яневский

    Описание
    Три девушки-студентки, путешествуя по Европе, решили подольше задержаться в Братиславе (Словакия). Сами того не ведая, они попадают в царство мяса и крови. Ведь одна из здешних гостиниц, в которую приезжают наши героини, таит мрачный секрет — таинственную организацию, которая занимается пытками и убийствами. Сумеют ли девушки выбраться из этого кровавого ада живыми?

    Возраст: 18+ (зрителям, достигшим 18 лет. запрещено для детей)
    Рейтинг MPAA: R (лицам до 17 лет обязательно присутствие взрослого)
    Релиз от: M@kSIMus (HEVC-CLUB)
    Продолжительность: 01: 34: 58
    Качество видео: BDRip
    Перевод: Дублированный
    Субтитры: Отсутствуют
    Видео: HEVC/H.265, 1920x816, ~13, 2 Mbps
    Аудио 1: AC3, 6 ch, 448 Kbps - Русский, дублированный
    Аудио 2: AC3, 6 ch, 448 Kbps - Английский
    Общее
    Уникальный идентификатор : 15101522680498336912380868117866521247 (0xB5C728DA19A0E0538CBB5D57FF4A29F)
    Полное имя : R: 2. Hostel Part II (2007) BDRip 1080p HEVC 10 bit.mkv
    Формат : Matroska
    Версия формата : Version 4/Version 2
    Размер файла : 9, 33 Гбайт
    Продолжительность : 1 ч. 34 м.
    Общий поток : 14, 1 Мбит/сек
    Название фильма : Hostel: Part II (2007) Encoded_by_M@kSIMus
    Дата кодирования : UTC 2020-01-29 05: 53: 48
    Программа кодирования : mkvmerge v43.0.0 (\'The Quartermaster\') 64-bit
    Библиотека кодирования : libebml v1.3.10 + libmatroska v1.5.2
    Обложка : Yes
    Attachments : cover02.jpg
    Видео
    Идентификатор : 1
    Формат : HEVC
    Формат/Информация : High Efficiency Video Coding
    Профиль формата : Main10@L4.1@High
    Идентификатор кодека : V_MPEGH/ISO/HEVC
    Продолжительность : 1 ч. 34 м.
    Битрейт : 13, 2 Мбит/сек
    Ширина : 1920 пикселей
    Высота : 816 пикселей
    Соотношение сторон : 2, 35: 1
    Режим частоты кадров : Постоянный
    Частота кадров : 23, 976 (24000/1001) кадра/сек
    Цветовое пространство : YUV
    Субдискретизация насыщенности : 4: 2: 0
    Битовая глубина : 10 бит
    Бит/(Пиксели*Кадры) : 0.350
    Размер потока : 8, 73 Гбайт (94%)
    Библиотека кодирования : x265 3.2+5-354901970679: Windowsclang 8.0.164 bit 10bit
    Настройки программы : cpuid=1049583/frame-threads=5/numa-pools=4/wpp/no-pmode/no-pme/no-psnr/no-ssim/log-level=3/input-csp=1/input-res=1920x816/interlace=0/total-frames=0/level-idc=41/high-tier=1/uhd-bd=0/ref=4/allow-non-conformance/no-repeat-t_heads/annexb/no-aud/no-hrd/info/hash=0/no-temporal-layers/open-gop/min-keyint=24/keyint=240/gop-lookahead=0/bframes=12/b-adapt=2/b-pyramid/bframe-bias=0/rc-lookahead=40/lookahead-slices=5/scenecut=40/radl=0/no-splice/no-intra-refresh/ctu=32/min-cu-size=8/no-rect/no-amp/max-tu-size=32/tu-inter-depth=4/tu-intra-depth=4/limit-tu=1/rdoq-level=1/dynamic-rd=0.00/no-ssim-rd/signhide/no-tskip/nr-intra=0/nr-inter=0/no-constrained-intra/no-strong-intra-smoothing/max-merge=5/limit-refs=1/no-limit-modes/me=3/subme=7/merange=57/temporal-mvp/no-frame-dup/no-hme/weightp/no-weightb/no-analyze-src-pics/deblock=-3: -3/no-sao/no-sao-non-deblock/rd=3/selective-sao=0/early-skip/no-rskip/no-fast-intra/no-tskip-fast/no-cu-lossless/b-intra/no-splitrd-skip/rdpenalty=0/psy-rd=2.00/psy-rdoq=1.00/no-rd-refine/no-lossless/cbqpoffs=0/crqpoffs=0/rc=crf/crf=22.0/qcomp=0.60/qpstep=4/stats-write=0/stats-read=0/vbv-maxrate=50000/vbv-bufsize=50000/vbv-init=0.9/crf-max=0.0/crf-min=0.0/ipratio=1.40/pbratio=1.30/aq-mode=3/aq-strength=1.00/no-cutree/zone-count=0/no-strict-cbr/qg-size=32/no-rc-grain/qpmax=69/qpmin=0/no-const-vbv/sar=1/overscan=0/videoformat=5/range=0/colorprim=2/transfer=2/colormatrix=2/chromaloc=0/display-window=0/cll=0, 0/min-luma=0/max-luma=1023/log2-max-poc-lsb=8/vui-timing-info/vui-hrd-info/slices=1/no-opt-qp-pps/no-opt-ref-list-length-pps/no-multi-pass-opt-rps/scenecut-bias=0.05/no-opt-cu-delta-qp/no-aq-motion/no-hdr/no-hdr-opt/no-dhdr10-opt/no-idr-recovery-sei/analysis-reuse-level=5/scale-factor=0/refine-intra=0/refine-inter=0/refine-mv=1/refine-ctu-distortion=0/no-limit-sao/ctu-info=0/no-lowpass-dct/refine-analysis-type=0/copy-pic=1/max-ausize-factor=1.0/no-dynamic-refine/no-single-sei/no-hevc-aq/no-svt/no-field/qp-adaptation-range=1.00
    Язык : English
    Default : Да
    Forced : Нет
    Цветовой диапазон : Limited
    Аудио #1
    Идентификатор : 2
    Формат : AC-3
    Формат/Информация : Audio Coding 3
    Идентификатор кодека : A_AC3
    Продолжительность : 1 ч. 34 м.
    Вид битрейта : Постоянный
    Битрейт : 448 Кбит/сек
    Каналы : 6 каналов
    Расположение каналов : Front: L C R, Side: L R, LFE
    Частота : 48, 0 КГц
    Частота кадров : 31, 250 кадров/сек (1536 SPF)
    Битовая глубина : 16 бит
    Метод сжатия : С потерями
    Размер потока : 304 Мбайт (3%)
    Заголовок : Дубляж
    Язык : Russian
    ServiceKind/String : Complete Main
    Default : Да
    Forced : Нет
    Аудио #2
    Идентификатор : 3
    Формат : AC-3
    Формат/Информация : Audio Coding 3
    Идентификатор кодека : A_AC3
    Продолжительность : 1 ч. 34 м.
    Вид битрейта : Постоянный
    Битрейт : 448 Кбит/сек
    Каналы : 6 каналов
    Расположение каналов : Front: L C R, Side: L R, LFE
    Частота : 48, 0 КГц
    Частота кадров : 31, 250 кадров/сек (1536 SPF)
    Битовая глубина : 16 бит
    Метод сжатия : С потерями
    Размер потока : 304 Мбайт (3%)
    Заголовок : Оригинал
    Язык : English
    ServiceKind/String : Complete Main
    Default : Нет
    Forced : Нет


    Онлайн видео Хостел 2


    Хостел 2/Hostel: Part II (2007) BDRip [H.265/1080p] [10-bit]

    Хостел 2 / Hostel: Part II (2007) BDRip [H.265 / 1080p] [10-bit] торрент скачать бесплатно
    Рейтинг →
     (голосов: 1, оценка 3/5, голосовать можно 1 раз )

    Другие торренты по теме:

  • Хостел / Hostel (2005) BDRip [H.264 / 720p]
  • Хостел / Hostel (2005) BDRip [H.265 / 1080p] [10-bit]
  • Хостел 2 / Hostel: Part II (2007) BDRip [H.264 / 720p]
  • Хостел 3 / Hostel: Part III (2011) BDRip [H.265 / 1080p] [10-bit]


    • Комментарии (0):

      Информация

      Информация

        Посетители, находящиеся в группе Гости, не могут оставлять комментарии в данной новости.

        ↓ Меню




        ↓ Опрос

        Вы добавили сайт в закладки?
        Да
        Нет


        Популярное