.
Авторизация | Регистрация
bitok.xyz
Торрент скачать бесплатно Фильмы торрент скачать Война миров / War of the Worlds (2005) BDRip [H.265 / 1080p] [10-bit] торрент скачать бесплатно


    Война миров / War of the Worlds (2005) BDRip [H.265 / 1080p] [10-bit] торрент скачать бесплатно

    Дата: 1-02-2020, 05:00 | .torrent скачали: 0

    Война миров / War of the Worlds (2005) BDRip [H.265 / 1080p] [10-bit]Производство: США/Paramount Pictures, DreamWorks, Amblin Entertainment
    Жанр: фантастика, триллер, приключения
    Режиссер: Стивен Спилберг

    Актеры
    Том Круз, Дакота Фэннинг, Миранда Отто, Джастин Чэтвин, Тим Роббинс, Морган Фримен, Рик Гонзалез, Юл Васкез, Ленни Венито, Лиза Энн Уолтер

    Описание
    Никто не поверил бы в начале 21 столетия, что за всем происходящим на Земле зорко и внимательно следят существа более развитые, чем человек, что в то время, как люди занимались своими делами, их исследовали и изучали.

    Возраст: 12+ (зрителям, достигшим 12 лет)
    Рейтинг MPAA: PG-13 (детям до 13 лет просмотр нежелателен)
    Релиз от: Mr. Fox (HEVC-CLUB)
    Продолжительность: 01: 56: 33
    Качество видео: BDRip
    Перевод: Дублированный
    Субтитры: Русские, английские
    Видео: HEVC/H.265, 1920x1040, ~16, 1 Mbps
    Аудио 1: AC3, 6 ch, 640 Kbps - Русский, дублированный
    Аудио 2: AC3, 6 ch, 640 Kbps - Английский
    Общее
    Уникальный идентификатор : 103681581455865384013575408654203178189 (0x4E0058A33B795CFE7168AFE75B8B4CCD)
    Полное имя : R: War of the Worlds (2005) BDRip 1080p HEVC.mkv
    Формат : Matroska
    Версия формата : Version 4/Version 2
    Размер файла : 14, 2 Гбайт
    Продолжительность : 1 ч. 56 м.
    Общий поток : 17, 4 Мбит/сек
    Название фильма : War of the Worlds (2005)
    Дата кодирования : UTC 2020-01-29 12: 26: 00
    Программа кодирования : mkvmerge v43.0.0 (\'The Quartermaster\') 64-bit
    Библиотека кодирования : libebml v1.3.10 + libmatroska v1.5.2
    Обложка : Yes
    Attachments : cover.jpg
    Видео
    Идентификатор : 1
    Формат : HEVC
    Формат/Информация : High Efficiency Video Coding
    Профиль формата : Main10@L4.1@High
    Идентификатор кодека : V_MPEGH/ISO/HEVC
    Продолжительность : 1 ч. 56 м.
    Битрейт : 16, 1 Мбит/сек
    Ширина : 1920 пикселей
    Высота : 1040 пикселей
    Соотношение сторон : 1, 85: 1
    Режим частоты кадров : Постоянный
    Частота кадров : 23, 976 (23976/1000) кадра/сек
    Частота кадров в оригинале : 23, 976 (24000/1001) кадра/сек
    Цветовое пространство : YUV
    Субдискретизация насыщенности : 4: 2: 0
    Битовая глубина : 10 бит
    Бит/(Пиксели*Кадры) : 0.337
    Размер потока : 13, 1 Гбайт (93%)
    Библиотека кодирования : x265 3.2.1+1-b5c86a64bbbe: WindowsMSVC 192364 bit 10bit
    Настройки программы : cpuid=1111039/frame-threads=3/numa-pools=12/wpp/no-pmode/no-pme/no-psnr/no-ssim/log-level=2/input-csp=1/input-res=1920x1040/interlace=0/total-frames=158322/level-idc=41/high-tier=1/uhd-bd=0/ref=5/no-allow-non-conformance/no-repeat-t_heads/annexb/no-aud/no-hrd/info/hash=0/no-temporal-layers/open-gop/min-keyint=23/keyint=240/gop-lookahead=0/bframes=12/b-adapt=2/b-pyramid/bframe-bias=0/rc-lookahead=60/lookahead-slices=4/scenecut=40/radl=0/no-splice/no-intra-refresh/ctu=32/min-cu-size=8/rect/amp/max-tu-size=32/tu-inter-depth=4/tu-intra-depth=4/limit-tu=1/rdoq-level=2/dynamic-rd=0.00/no-ssim-rd/signhide/no-tskip/nr-intra=0/nr-inter=0/no-constrained-intra/no-strong-intra-smoothing/max-merge=4/limit-refs=2/limit-modes/me=3/subme=7/merange=57/temporal-mvp/no-hme/weightp/weightb/no-analyze-src-pics/deblock=-3: -3/no-sao/no-sao-non-deblock/rd=6/selective-sao=0/no-early-skip/no-rskip/no-fast-intra/no-tskip-fast/no-cu-lossless/no-b-intra/no-splitrd-skip/rdpenalty=0/psy-rd=2.00/psy-rdoq=1.00/no-rd-refine/no-lossless/cbqpoffs=0/crqpoffs=0/rc=crf/crf=20.0/qcomp=0.60/qpstep=4/stats-write=0/stats-read=0/vbv-maxrate=50000/vbv-bufsize=50000/vbv-init=0.9/crf-max=0.0/crf-min=0.0/ipratio=1.40/pbratio=1.30/aq-mode=1/aq-strength=1.00/no-cutree/zone-count=0/no-strict-cbr/qg-size=32/no-rc-grain/qpmax=69/qpmin=0/no-const-vbv/sar=1/overscan=0/videoformat=5/range=0/colorprim=1/transfer=1/colormatrix=1/chromaloc=0/display-window=0/cll=0, 0/min-luma=0/max-luma=1023/log2-max-poc-lsb=8/vui-timing-info/vui-hrd-info/slices=1/no-opt-qp-pps/no-opt-ref-list-length-pps/no-multi-pass-opt-rps/scenecut-bias=0.05/no-opt-cu-delta-qp/no-aq-motion/no-hdr/no-hdr-opt/no-dhdr10-opt/no-idr-recovery-sei/analysis-reuse-level=5/scale-factor=0/refine-intra=0/refine-inter=0/refine-mv=1/refine-ctu-distortion=0/no-limit-sao/ctu-info=0/no-lowpass-dct/refine-analysis-type=0/copy-pic=1/max-ausize-factor=1.0/no-dynamic-refine/no-single-sei/no-hevc-aq/no-svt/no-field/qp-adaptation-range=1.00
    Default : Да
    Forced : Нет
    Цветовой диапазон : Limited
    Основные цвета : BT.709
    Характеристики трансфера : BT.709
    Коэффициенты матрицы : BT.709
    Аудио #1
    Идентификатор : 2
    Формат : AC-3
    Формат/Информация : Audio Coding 3
    Идентификатор кодека : A_AC3
    Продолжительность : 1 ч. 56 м.
    Вид битрейта : Постоянный
    Битрейт : 640 Кбит/сек
    Каналы : 6 каналов
    Расположение каналов : Front: L C R, Side: L R, LFE
    Частота : 48, 0 КГц
    Частота кадров : 31, 250 кадров/сек (1536 SPF)
    Битовая глубина : 16 бит
    Метод сжатия : С потерями
    Размер потока : 533 Мбайт (4%)
    Заголовок : Дубляж
    Язык : Russian
    ServiceKind/String : Complete Main
    Default : Да
    Forced : Нет
    Аудио #2
    Идентификатор : 3
    Формат : AC-3
    Формат/Информация : Audio Coding 3
    Идентификатор кодека : A_AC3
    Продолжительность : 1 ч. 56 м.
    Вид битрейта : Постоянный
    Битрейт : 640 Кбит/сек
    Каналы : 6 каналов
    Расположение каналов : Front: L C R, Side: L R, LFE
    Частота : 48, 0 КГц
    Частота кадров : 31, 250 кадров/сек (1536 SPF)
    Битовая глубина : 16 бит
    Метод сжатия : С потерями
    Размер потока : 534 Мбайт (4%)
    Заголовок : Original
    Язык : English
    ServiceKind/String : Complete Main
    Default : Нет
    Forced : Нет
    Текст #1
    Идентификатор : 4
    Формат : UTF-8
    Идентификатор кодека : S_TEXT/UTF8
    Идентификатор кодека/Информация : UTF-8 Plain Text
    Продолжительность : 1 ч. 50 м.
    Битрейт : 61 бит/сек
    ElementCount : 888
    Размер потока : 49, 6 Кбайт (0%)
    Заголовок : Русские
    Язык : Russian
    Default : Нет
    Forced : Нет
    Текст #2
    Идентификатор : 5
    Формат : UTF-8
    Идентификатор кодека : S_TEXT/UTF8
    Идентификатор кодека/Информация : UTF-8 Plain Text
    Продолжительность : 1 ч. 48 м.
    Битрейт : 45 бит/сек
    ElementCount : 1119
    Размер потока : 36, 4 Кбайт (0%)
    Заголовок : Английские
    Язык : English
    Default : Нет
    Forced : Нет
    Меню
    00: 00: 00.000 : en: Earth Under Man
    00: 04: 16.005 : en: Eve of the War
    00: 08: 18.247 : en: Coming of the Invaders
    00: 13: 17.378 : en: In the Storm
    00: 19: 19.867 : en: The Machine Emerges
    00: 25: 29.319 : en: Heat-Ray
    00: 29: 45.241 : en: Escape
    00: 34: 32.570 : en: How We Reached Home
    00: 38: 47.033 : en: At the Window
    00: 43: 53.255 : en: Human Toll
    00: 49: 03.732 : en: Worst of Man
    00: 55: 17.105 : en: Exodus
    00: 59: 21.015 : en: Hudson Ferry
    01: 04: 44.171 : en: The Fighting Begins
    01: 10: 37.232 : en: Harlan Ogilvy
    01: 15: 53.298 : en: Disturbing Revelations
    01: 20: 28.990 : en: Stillness
    01: 24: 47.999 : en: Days of Imprisonment
    01: 29: 03.963 : en: Alone with Harlan
    01: 33: 59.884 : en: Under Foot
    01: 36: 59.604 : en: Earth Under Them
    01: 41: 07.561 : en: In Boston
    01: 45: 27.404 : en: Wreckage
    01: 49: 42.367 : en: End Credits


    Онлайн видео Война миров


    Война миров/War of the Worlds (2005) BDRip [H.265/1080p] [10-bit]

    Война миров / War of the Worlds (2005) BDRip [H.265 / 1080p] [10-bit] торрент скачать бесплатно
    Рейтинг →
     (голосов: 1, оценка 4/5, голосовать можно 1 раз )

    Другие торренты по теме:

  • Война миров Z / World War Z (2013) BDRip [H.264] скачать через торрент бесплатно
  • Война миров Z / World War Z (2013) BDRemux [1080p] [Unrated Cut] скачать через торрент бесплатно
  • Специальный корреспондент - Война миров (28 / 10 / 2015) SATRip скачать через торрент бесплатно
  • Aillion - Война миров (2015) [MP3|320 кб / с]<Melodic Heavy Metal> скачать через торрент бесплатно
  • Герберт Уэллс | Война миров (2011) [m4b|AAC]
  • Олег Дивов | Война миров (2016) [FB2]
  • ЗВЕЗДА. Теория заговора. Нефтяной капкан или война миров (01.09.2016) SATRip
  • Война миров / The War of the Worlds (1953) HDTVRip


    • Комментарии (0):

      Информация

      Информация

        Посетители, находящиеся в группе Гости, не могут оставлять комментарии в данной новости.

        ↓ Меню




        ↓ Опрос

        Вы добавили сайт в закладки?
        Да
        Нет


        Популярное