.
Авторизация | Регистрация
bitok.xyz
Торрент скачать бесплатно Фильмы торрент скачать Гинденбург: Последний полет / Hindenburg (2011) BDRip [H.265 / 720p] [10-bit] [PR] торрент скачать бесплатно


    Гинденбург: Последний полет / Hindenburg (2011) BDRip [H.265 / 720p] [10-bit] [PR] торрент скачать бесплатно

    Дата: 1-02-2020, 05:00 | .torrent скачали: 0

    Гинденбург: Последний полет / Hindenburg (2011) BDRip [H.265 / 720p] [10-bit] [PR]Производство: Германия/RTL, TeamWorx Television Film
    Жанр: Боевик, Триллер, Драма
    Режиссер: Филипп Кадельбах

    Актеры
    Максимилиан Симонишек, Лорен Ли Смит, Стейси Кич, Грета Скакки, Хиннерк Шонеманн, Юстус фон Донаньи, Ханнес Янике, Кристиана Пауль, Пьер Бессон, Алисия фон Риттберг

    Описание

    История гибели самого крупного воздушного судна ХХ века, символа нацистской Германии.
    1937 год. Громадный дирижабль Гинденбург отправляется в свой первый полет над Атлантикой. Никто из пассажиров и членов экипажа не подозревает, что на борту воздушного судна заложена бомба…

    Возраст: 12+ (зрителям, достигшим 12 лет)
    Продолжительность: 03: 07: 15
    Качество видео: BDRip (720p)
    Перевод: Дублированный (ТВ-3)
    Субтитры: отсутствуют
    Видео: HEVC/H.265, 1280x720, 4883 Kbps
    Аудио 1: AC3, 2 ch, 192 Kbps | Русский
    Аудио 2: AC3, 6 ch, 448 Kbps | АнглийскийОбщее
    Уникальный идентификатор : 180736099880621819858055767167108084450 (0x87F881B5BA21F2EFE5CAE97B75A372E2)
    Полное имя : Hindenburg.2011.BDRip.720p.HEVC.mkv
    Формат : Matroska
    Версия формата : Version 4/Version 2
    Размер файла : 7, 38 Гбайт
    Продолжительность : 3 ч. 7 м.
    Общий поток : 5635 Кбит/сек
    Название фильма : Hindenburg (2011)
    Программа кодирования : XviD4PSP 8.0.91
    Библиотека кодирования : Lavf58.20.100
    Обложка : Yes
    ErrorDetectionType : Per level 1
    Attachments : cover
    ENCODING_INFO : JPEG COPY Быстрое
    Язык : und
    Видео
    Идентификатор : 1
    Формат : HEVC
    Формат/Информация : High Efficiency Video Coding
    Профиль формата : Main10@L4.1@High
    Идентификатор кодека : V_MPEGH/ISO/HEVC
    Продолжительность : 3 ч. 7 м.
    Битрейт : 4883 Кбит/сек
    Ширина : 1280 пикселей
    Высота : 720 пикселей
    Соотношение сторон : 16: 9
    Режим частоты кадров : Постоянный
    Частота кадров : 24, 000 кадра/сек
    Цветовое пространство : YUV
    Субдискретизация насыщенности : 4: 2: 0
    Битовая глубина : 10 бит
    Бит/(Пиксели*Кадры) : 0.221
    Размер потока : 6, 40 Гбайт (87%)
    Default : Да
    Forced : Нет
    Цветовой диапазон : Limited
    Основные цвета : BT.709
    Характеристики трансфера : BT.709
    Коэффициенты матрицы : BT.709
    ENCODING_INFO : H264 HEVC NVENC VBR 5000kbps HQ
    Аудио #1
    Идентификатор : 2
    Формат : AC-3
    Формат/Информация : Audio Coding 3
    Параметр Endianness формата : Big
    Идентификатор кодека : A_AC3
    Продолжительность : 3 ч. 7 м.
    Вид битрейта : Постоянный
    Битрейт : 192 Кбит/сек
    Каналы : 2 канала
    Расположение каналов : Front: L R
    Частота : 48, 0 КГц
    Частота кадров : 31, 250 кадров/сек (1536 SPF)
    Битовая глубина : 16 бит
    Метод сжатия : С потерями
    Размер потока : 258 Мбайт (3%)
    Заголовок : Dub TB-3 (AC3 2.0 192 kbps)
    Язык : Russian
    ServiceKind/String : Complete Main
    Default : Да
    Forced : Нет
    ENCODING_INFO : AC3 COPY Безопасное
    Аудио #2
    Идентификатор : 3
    Формат : AC-3
    Формат/Информация : Audio Coding 3
    Параметр Endianness формата : Big
    Идентификатор кодека : A_AC3
    Продолжительность : 3 ч. 7 м.
    Вид битрейта : Постоянный
    Битрейт : 448 Кбит/сек
    Каналы : 6 каналов
    Расположение каналов : Front: L C R, Side: L R, LFE
    Частота : 48, 0 КГц
    Частота кадров : 31, 250 кадров/сек (1536 SPF)
    Битовая глубина : 16 бит
    Метод сжатия : С потерями
    Размер потока : 601 Мбайт (8%)
    Заголовок : DTS-HD MA 5.1 1815 kbps
    Язык : English
    ServiceKind/String : Complete Main
    Default : Нет
    Forced : Нет
    ENCODING_INFO : DTS-HD MA AC3 CBR 448kbps
    Меню
    00: 00: 04.999 : : 1
    00: 05: 07.624 : : 2
    00: 10: 08.083 : : 3
    00: 15: 15.624 : : 4
    00: 20: 47.166 : : 5
    00: 27: 51.749 : : 6
    00: 32: 04.666 : : 7
    00: 37: 38.749 : : 8
    00: 44: 23.416 : : 9
    00: 47: 52.999 : : 10
    00: 54: 07.458 : : 11
    00: 56: 31.999 : : 12
    01: 00: 31.249 : : 13
    01: 05: 30.083 : : 14
    01: 14: 54.833 : : 15
    01: 18: 51.999 : : 16
    01: 21: 32.166 : : 17
    01: 26: 30.791 : : 18
    01: 33: 01.124 : : 19
    01: 39: 47.208 : : 20
    01: 43: 32.416 : : 21
    01: 49: 46.374 : : 22
    01: 53: 02.624 : : 23
    01: 59: 47.166 : : 24
    02: 04: 41.541 : : 25
    02: 06: 21.999 : : 26
    02: 10: 56.374 : : 27
    02: 16: 28.291 : : 28
    02: 21: 35.749 : : 29
    02: 28: 08.749 : : 30
    02: 33: 15.374 : : 31
    02: 38: 16.166 : : 32
    02: 41: 46.874 : : 33
    02: 45: 29.999 : : 34
    02: 52: 10.583 : : 35
    02: 55: 54.583 : : 36
    03: 02: 13.624 : : 37
    03: 05: 19.124 : : 38

    Скриншоты для ознакомления



    Все одноименные релизы в Клубе
    Время раздачи: 19 - 23 (до появления первых 3-5 скачавших)

    Онлайн видео Гинденбург: Последний полет


    Гинденбург: Последний полет/Hindenburg (2011) BDRip [H.265/720p] [10-bit] [PR]

    Гинденбург: Последний полет / Hindenburg (2011) BDRip [H.265 / 720p] [10-bit] [PR] торрент скачать бесплатно
    Рейтинг →
     (голосов: 1, оценка 5/5, голосовать можно 1 раз )

    Другие торренты по теме:

  • Гинденбург: Последний полет / Hindenburg (2011) BDRip [H.265 / 1080p] [10-bit]
  • Гинденбург: Последний полет / Hindenburg (2011) BDRip [H.265] [10-bit] [PR]


    • Комментарии (0):

      Информация

      Информация

        Посетители, находящиеся в группе Гости, не могут оставлять комментарии в данной новости.

        ↓ Меню




        ↓ Опрос

        Вы добавили сайт в закладки?
        Да
        Нет


        Популярное