ВАЖНО! Сайт скоро заблокируют! Подписывайся на наш канал в Telegram https://t.me/torrentok и получи доступ к торрентам без ограничений!
.
Авторизация | Регистрация
bitok.xyz
Торрент скачать бесплатно Фильмы торрент скачать Дом 4 / House IV: The Repossession (1992) BDRip [H.264 / 720p] торрент скачать бесплатно


    Дом 4 / House IV: The Repossession (1992) BDRip [H.264 / 720p] торрент скачать бесплатно

    Дата: 1-02-2020, 05:00 | .torrent скачали: 0

    Дом 4 / House IV: The Repossession (1992) BDRip [H.264 / 720p]Производство: США/New Line Cinema, Sean S. Cunningham Films
    Жанр: ужасы, фэнтези, триллер
    Режиссер: Льюис Абернати

    Актеры
    Терри Триз, Уильям Кэтт, Скотт Баркхолдер, Денни Диллон, Мелисса Клэйтон, Даббс Грир, Нед Ромеро, Нед Беллами, Джон Сантуччи, Марк Гаш

    Описание

    Роджер погибает в результате автокатастрофы, а его семья вынуждена перебраться в семейную реликвию — нехороший дом. Там, как повелось, с ними начинает происходить всякая тарабарщина, вперемешку с атаками двоюродного братца, который пристаёт к вдове Роджера Келли, чтобы она продала дом. Естественно такая настойчивость вызывает определённые подозрения и Келли не хочет его продавать…

    Возраст: 18+ (зрителям, достигшим 18 лет. запрещено для детей)
    Рейтинг MPAA: R (лицам до 17 лет обязательно присутствие взрослого)
    Релиз от: k.e.n MegaPeer
    Продолжительность: 01: 33: 41
    Качество видео: BDRip 720p
    Перевод: Профессиональный многоголосый, профессиональный двухголосый, любительский одноголосый
    Субтитры: английские
    Видео: AVC, 1280x694 (1.85: 1), 24 fps, 5630 kbps
    Аудио #1: AC3, 48 kHz, 2 ch, 192 kbps - Русский, MVO (Фильм-экспорт для ТВЦ)
    Аудио #2: AC3, 48 kHz, 2 ch, 192 kbps - Русский, DVO (Ren-TV)
    Аудио #3: AC3, 48 kHz, 2 ch, 192 kbps - Русский, VO (Агма/Парадиз)
    Аудио #4: AC3, 48 kHz, 6 ch, 384 kbps - Английский, Original
    Format : Matroska
    Format version : Version 2
    File size : 4.37 GiB
    Duration : 1 h 35 min
    Overall bit rate : 6 577 kb/s
    Encoded date : UTC 2020-01-30 11: 45: 41
    Writing application : mkvmerge v5.3.0 (\'I could have danced\') built on Feb 9 2012 10: 38: 07
    Writing library : libebml v1.2.3 + libmatroska v1.3.0
    Cover : Yes
    Attachments : cover (2).jpg
    Video
    ID : 1
    Format : AVC
    Format/Info : Advanced Video Codec
    Format profile : High@L4.1
    Format settings : CABAC/9 Ref Frames
    Format settings, CABAC : Yes
    Format settings, Reference frames : 9 frames
    Codec ID : V_MPEG4/ISO/AVC
    Duration : 1 h 35 min
    Bit rate : 5 630 kb/s
    Width : 1 280 pixels
    Height : 694 pixels
    Display aspect ratio : 1.85: 1
    Frame rate mode : Constant
    Frame rate : 24.000 FPS
    Color space : YUV
    Chroma subsampling : 4: 2: 0
    Bit depth : 8 bits
    Scan type : Progressive
    Bits/(Pixel*Frame) : 0.264
    Stream size : 3.65 GiB (83%)
    Writing library : x264 core 158 r2984 3759fcb
    Encoding settings : cabac=1/ref=9/deblock=1: -3: -3/analyse=0x3: 0x133/me=umh/subme=11/psy=1/psy_rd=1.00: 0.15/mixed_ref=1/me_range=32/chroma_me=1/trellis=2/8x8dct=1/cqm=0/deadzone=21, 11/fast_pskip=0/chroma_qp_offset=-3/threads=12/lookahead_threads=3/sliced_threads=0/nr=0/decimate=0/interlaced=0/bluray_compat=0/constrained_intra=0/bframes=12/b_pyramid=2/b_adapt=2/b_bias=0/direct=3/weightb=1/open_gop=0/weightp=2/keyint=240/keyint_min=24/scenecut=40/intra_refresh=0/rc_lookahead=60/rc=2pass/mbtree=0/bitrate=5630/ratetol=1.0/qcomp=0.75/qpmin=0/qpmax=69/qpstep=4/cplxblur=20.0/qblur=0.5/vbv_maxrate=50000/vbv_bufsize=62500/nal_hrd=none/filler=0/ip_ratio=1.30/pb_ratio=1.20/aq=3: 0.80
    Language : English
    Default : Yes
    Forced : No
    Color range : Limited
    Color primaries : BT.709
    Transfer characteristics : BT.709
    Matrix coefficients : BT.709
    Audio #1
    ID : 2
    Format : AC-3
    Format/Info : Audio Coding 3
    Commercial name : Dolby Digital
    Codec ID : A_AC3
    Duration : 1 h 35 min
    Bit rate mode : Constant
    Bit rate : 192 kb/s
    Channel(s) : 2 channels
    Channel layout : L R
    Sampling rate : 48.0 kHz
    Frame rate : 31.250 FPS (1536 SPF)
    Bit depth : 16 bits
    Compression mode : Lossy
    Stream size : 131 MiB (3%)
    Title : MVO Фильм-экспорт (ТВЦ)
    Language : Russian
    Service kind : Complete Main
    Default : Yes
    Forced : No
    Audio #2
    ID : 3
    Format : AC-3
    Format/Info : Audio Coding 3
    Commercial name : Dolby Digital
    Codec ID : A_AC3
    Duration : 1 h 35 min
    Bit rate mode : Constant
    Bit rate : 192 kb/s
    Channel(s) : 2 channels
    Channel layout : L R
    Sampling rate : 48.0 kHz
    Frame rate : 31.250 FPS (1536 SPF)
    Bit depth : 16 bits
    Compression mode : Lossy
    Stream size : 131 MiB (3%)
    Title : DVO Ren-TV
    Language : Russian
    Service kind : Complete Main
    Default : No
    Forced : No
    Audio #3
    ID : 4
    Format : AC-3
    Format/Info : Audio Coding 3
    Commercial name : Dolby Digital
    Codec ID : A_AC3
    Duration : 1 h 35 min
    Bit rate mode : Constant
    Bit rate : 192 kb/s
    Channel(s) : 2 channels
    Channel layout : L R
    Sampling rate : 48.0 kHz
    Frame rate : 31.250 FPS (1536 SPF)
    Bit depth : 16 bits
    Compression mode : Lossy
    Stream size : 131 MiB (3%)
    Title : VO Агма Парадиз
    Language : Russian
    Service kind : Complete Main
    Default : No
    Forced : No
    Audio #4
    ID : 5
    Format : AC-3
    Format/Info : Audio Coding 3
    Commercial name : Dolby Digital
    Codec ID : A_AC3
    Duration : 1 h 35 min
    Bit rate mode : Constant
    Bit rate : 384 kb/s
    Channel(s) : 6 channels
    Channel layout : L R C LFE Ls Rs
    Sampling rate : 48.0 kHz
    Frame rate : 31.250 FPS (1536 SPF)
    Bit depth : 16 bits
    Compression mode : Lossy
    Stream size : 261 MiB (6%)
    Language : English
    Service kind : Complete Main
    Default : No
    Forced : No
    Text
    ID : 6
    Format : UTF-8
    Codec ID : S_TEXT/UTF8
    Codec ID/Info : UTF-8 Plain Text
    Language : English
    Default : No
    Forced : No
    Menu
    00: 00: 00.000 : en: Chapter 1
    00: 09: 14.708 : en: Chapter 2
    00: 18: 12.667 : en: Chapter 3
    00: 24: 04.333 : en: Chapter 4
    00: 37: 55.083 : en: Chapter 5
    00: 47: 25.583 : en: Chapter 6
    00: 50: 37.458 : en: Chapter 7
    01: 00: 20.542 : en: Chapter 8
    01: 07: 26.667 : en: Chapter 9
    01: 18: 01.958 : en: Chapter 10
    01: 24: 44.083 : en: Chapter 11
    01: 31: 30.583 : en: Chapter 12

    Скриншоты для ознакомления



    Все одноименные релизы в Клубе
    Время раздачи: с 23: 00 до 8: 30 (до появления первых 3-5 скачавших)

    Онлайн видео Дом 4


    Дом 4/House IV: The Repossession (1992) BDRip [H.264/720p]

    Дом 4 / House IV: The Repossession (1992) BDRip [H.264 / 720p] торрент скачать бесплатно
    Рейтинг →
     (голосов: 1, оценка 5/5, голосовать можно 1 раз )

    Другие торренты по теме:

  • Nicky Romero - Saturday Sessions@Dont Let Daddy Know (2020) [MP3|320 Kbps] <Electro House, Progressive House>
  • Timmy Trumpet - Live From Sydney, Australia 2020-04-05 [MP3|320 Kbps] <Electro House, Hardstyle, Progressive House>
  • Dirty South - 4 hour DJ Set (Quarantined from studio 2020-04-04) [MP3|320 Kbps] <Progressive House, Tech House>
  • Sven Weisemann (Desolate, Jouem, Phidias) - Discography 41 Releases (2006-2019) Fauxpas Musik, Mojuba [FLAC|Lossless|tracks+.cue, tracks] <Tech House, Downtempo, IDM, UK Garage, Deep House, Ambient>
  • VA - Beatport Electro House: Electro Sound Pack #48 (2020) [MP3|320 Kbps] <Electro House, Club, Dance>
  • VA - Beatport Disco House: Electro Sound Pack #51 (2020) [MP3|320 Kbps] <Disco, Funky House, Dance>
  • VA - Home Office Motivation (2020) [MP3|320 Kbps] <Eurodance, Euro-House, Other>
  • House Flipper (2018) [Ru / Multi] (1.2038 / dlc) License GOG (обновляемая)


    • Комментарии (0):

      Информация

      Информация

        Посетители, находящиеся в группе Гости, не могут оставлять комментарии в данной новости.

        ↓ Меню




        Популярное