.
Авторизация | Регистрация
bitok.xyz
Торрент скачать бесплатно Фильмы торрент скачать Китайский квартал / Chinatown (1974) BDRip [H.265 / 1080p] [10-bit] торрент скачать бесплатно


    Китайский квартал / Chinatown (1974) BDRip [H.265 / 1080p] [10-bit] торрент скачать бесплатно

    Дата: 1-02-2020, 05:00 | .torrent скачали: 0

    Китайский квартал / Chinatown (1974) BDRip [H.265 / 1080p] [10-bit]Производство: США/Paramount Pictures, Penthouse Video, Long Road Productions
    Жанр: триллер, драма, детектив
    Режиссер: Роман Полански

    Актеры
    Джек Николсон, Фэй Данауэй, Джон Хьюстон, Перри Лопес, Джон Хиллерман, Даррел Зверлинг, Дайан Лэдд, Рой Дженсон, Роман Полански, Ричард Бакалян

    Описание
    Гиттес принимает предложение загадочной богатой красавицы заняться расследованием обстоятельств тайного романа на стороне ее мужа - инженера. Согласившись на это дело, Гиттес не подозревал, что окажется в центре тайных скандалов, беспредела коррупции и скрытых махинаций, правда о которых всплывет однажды ночью вместе с телом несчастного инженера.

    Возраст: 16+ (зрителям, достигшим 16 лет)
    Рейтинг MPAA: R (лицам до 17 лет обязательно присутствие взрослого)
    Релиз от: HANNIBAL (HEVC-CLUB)
    Продолжительность: 02: 10: 31
    Качество видео: BDRip
    Перевод: Двуголосый профессиональный, авторский
    Субтитры: Отсутствуют
    Видео: HEVC/H.265, 1920x816, ~12, 7 Mbps
    Аудио 1: AC3, 6 ch, 448 Kbps - Русский, DVO (R5)
    Аудио 2: AC3, 6 ch, 640 Kbps - Русский, AVO (Г. Либергал)
    Общее
    Уникальный идентификатор : 71195269897382776397609933418987674857 (0x358FB5D0F073377D0F8F94CE587A5CE9)
    Полное имя : R: Chinatown (1974) BDRip-HEVC 1080p 10bit.mkv
    Формат : Matroska
    Версия формата : Version 4/Version 2
    Размер файла : 12, 6 Гбайт
    Продолжительность : 2 ч. 10 м.
    Общий поток : 13, 8 Мбит/сек
    Название фильма : Китайский квартал
    Дата кодирования : UTC 2020-01-29 14: 54: 38
    Программа кодирования : mkvmerge v25.0.0 (\'Prog Noir\') 64-bit
    Библиотека кодирования : libebml v1.3.6 + libmatroska v1.4.9/Lavf57.71.100
    Attachments : poster.jpg
    ACTORS : Джек Николсон, Фэй Данауэй,
    COUNTRY : США
    DATE : 1974
    DIRECTOR : Роман Полански
    ENCODING_INFO : MPEGTS MKV Пользовательский/H264 X265 CRF 18.5 Slow
    GENRE : триллер, драма, детектив
    HD_VIDEO : 1
    Язык : und
    MEDIA_TYPE : 9
    ORIGINAL_TITLE : Chinatown
    Видео
    Идентификатор : 1
    Формат : HEVC
    Формат/Информация : High Efficiency Video Coding
    Профиль формата : Main10@L4.1@High
    Идентификатор кодека : V_MPEGH/ISO/HEVC
    Продолжительность : 2 ч. 10 м.
    Битрейт : 12, 7 Мбит/сек
    Ширина : 1920 пикселей
    Высота : 816 пикселей
    Соотношение сторон : 2, 35: 1
    Режим частоты кадров : Постоянный
    Частота кадров : 23, 976 (24000/1001) кадра/сек
    Цветовое пространство : YUV
    Субдискретизация насыщенности : 4: 2: 0
    Битовая глубина : 10 бит
    Бит/(Пиксели*Кадры) : 0.338
    Размер потока : 11, 6 Гбайт (92%)
    Библиотека кодирования : x265 3.1+7-147fb92c5ed5: Windowsclang 8.0.064 bit 10bit
    Настройки программы : cpuid=1111039/frame-threads=13/wpp/no-pmode/no-pme/no-psnr/no-ssim/log-level=3/input-csp=1/input-res=1920x816/interlace=0/total-frames=0/level-idc=41/high-tier=1/uhd-bd=0/ref=5/allow-non-conformance/no-repeat-t_heads/annexb/no-aud/no-hrd/info/hash=0/no-temporal-layers/open-gop/min-keyint=23/keyint=240/gop-lookahead=0/bframes=8/b-adapt=2/b-pyramid/bframe-bias=0/rc-lookahead=60/lookahead-slices=4/scenecut=60/radl=0/no-splice/no-intra-refresh/ctu=64/min-cu-size=8/rect/amp/max-tu-size=32/tu-inter-depth=4/tu-intra-depth=4/limit-tu=4/rdoq-level=2/dynamic-rd=0.00/no-ssim-rd/signhide/no-tskip/nr-intra=0/nr-inter=0/no-constrained-intra/no-strong-intra-smoothing/max-merge=5/limit-refs=3/limit-modes/me=3/subme=7/merange=57/temporal-mvp/no-hme/weightp/weightb/no-analyze-src-pics/deblock=-3: -3/no-sao/no-sao-non-deblock/rd=6/no-early-skip/no-rskip/no-fast-intra/no-tskip-fast/no-cu-lossless/no-b-intra/no-splitrd-skip/rdpenalty=0/psy-rd=2.00/psy-rdoq=1.00/no-rd-refine/no-lossless/cbqpoffs=0/crqpoffs=0/rc=crf/crf=18.5/qcomp=0.60/qpstep=4/stats-write=0/stats-read=0/vbv-maxrate=50000/vbv-bufsize=50000/vbv-init=0.9/crf-max=30.0/crf-min=0.0/ipratio=1.40/pbratio=1.30/aq-mode=2/aq-strength=1.00/no-cutree/zone-count=0/no-strict-cbr/qg-size=32/no-rc-grain/qpmax=69/qpmin=0/no-const-vbv/sar=1/overscan=0/videoformat=5/range=0/colorprim=1/transfer=1/colormatrix=1/chromaloc=0/display-window=0cll=0, 0/min-luma=0/max-luma=1023/log2-max-poc-lsb=8/vui-timing-info/vui-hrd-info/slices=1/no-opt-qp-pps/no-opt-ref-list-length-pps/no-multi-pass-opt-rps/scenecut-bias=0.05/no-opt-cu-delta-qp/no-aq-motion/no-hdr/no-hdr-opt/no-dhdr10-opt/no-idr-recovery-sei/analysis-reuse-level=5/scale-factor=0/refine-intra=0/refine-inter=0/refine-mv=0/refine-ctu-distortion=0/no-limit-sao/ctu-info=0/no-lowpass-dct/refine-analysis-type=267/copy-pic=1/max-ausize-factor=1.0/no-dynamic-refine/no-single-sei/no-hevc-aq/no-svt/no-field/qp-adaptation-range=1.00
    Default : Да
    Forced : Нет
    Цветовой диапазон : Limited
    Основные цвета : BT.709
    Характеристики трансфера : BT.709
    Коэффициенты матрицы : BT.709
    Аудио #1
    Идентификатор : 2
    Формат : AC-3
    Формат/Информация : Audio Coding 3
    Идентификатор кодека : A_AC3
    Продолжительность : 2 ч. 10 м.
    Вид битрейта : Постоянный
    Битрейт : 448 Кбит/сек
    Каналы : 6 каналов
    Расположение каналов : Front: L C R, Side: L R, LFE
    Частота : 48, 0 КГц
    Частота кадров : 31, 250 кадров/сек (1536 SPF)
    Битовая глубина : 16 бит
    Метод сжатия : С потерями
    Размер потока : 418 Мбайт (3%)
    Заголовок : R5
    Язык : Russian
    ServiceKind/String : Complete Main
    Default : Да
    Forced : Нет
    Аудио #2
    Идентификатор : 3
    Формат : AC-3
    Формат/Информация : Audio Coding 3
    Идентификатор кодека : A_AC3
    Продолжительность : 2 ч. 10 м.
    Вид битрейта : Постоянный
    Битрейт : 640 Кбит/сек
    Каналы : 6 каналов
    Расположение каналов : Front: L C R, Side: L R, LFE
    Частота : 48, 0 КГц
    Частота кадров : 31, 250 кадров/сек (1536 SPF)
    Битовая глубина : 16 бит
    Метод сжатия : С потерями
    Размер потока : 598 Мбайт (5%)
    Заголовок : Г.Либергал
    Язык : Russian
    ServiceKind/String : Complete Main
    Default : Нет
    Forced : Нет
    Меню
    00: 00: 00.000 : : Глава 1
    00: 10: 11.402 : : Глава 2
    00: 22: 32.851 : : Глава 3
    00: 35: 10.399 : : Глава 4
    00: 43: 09.920 : : Глава 5
    00: 50: 17.222 : : Глава 6
    01: 06: 09.090 : : Глава 7
    01: 22: 14.471 : : Глава 8
    01: 35: 08.035 : : Глава 9
    01: 52: 13.726 : : Глава 10
    02: 04: 21.745 : : Глава 11
    02: 08: 48.887 : : Глава 12


    Онлайн видео Китайский квартал


    Китайский квартал/Chinatown (1974) BDRip [H.265/1080p] [10-bit]

    Китайский квартал / Chinatown (1974) BDRip [H.265 / 1080p] [10-bit] торрент скачать бесплатно
    Рейтинг →
     (голосов: 1, оценка 3/5, голосовать можно 1 раз )

    Другие торренты по теме:

  • Китайский квартал / Chinatown (1974) BDRip [576p] iPad
  • Китайский квартал / Chinatown (2015) WEB-DLRip скачать через торрент бесплатно
  • Китайский квартал / Chinatown (1974) BDRip [1080p] ATV


    • Комментарии (0):

      Информация

      Информация

        Посетители, находящиеся в группе Гости, не могут оставлять комментарии в данной новости.

        ↓ Меню




        ↓ Опрос

        Вы добавили сайт в закладки?
        Да
        Нет


        Популярное