.
Авторизация | Регистрация
bitok.xyz
Торрент скачать бесплатно Фильмы торрент скачать Айка (2018) WEB-DLRip [H.264 / 720p-LQ] [10 bit] [PR] торрент скачать бесплатно


    Айка (2018) WEB-DLRip [H.264 / 720p-LQ] [10 bit] [PR] торрент скачать бесплатно

    Дата: 1-02-2020, 05:00 | .torrent скачали: 0

    Айка (2018) WEB-DLRip [H.264 / 720p-LQ] [10 bit] [PR]Производство: Россия, Германия, Польша, Китай, Казахстан/ARTE LLC, Eurasia Film Production, Eurimages
    Жанр: Драма
    Режиссер: Сергей Дворцевой

    Актеры
    Самал Еслямова, Джипаргуль Абдилова, Давид Алавердян, Нуржамал Мамадалиева, Нуржан Кунназарова, Сергей Мазур, Азамат Сатимбаев, Асхат Кучинчереков, Лариса Фирсова, Полина Северная

    Описание

    Молодая девушка по имени Айка выросла в сельской местности, на окраине Киргизии. Жизнь в родной деревушке стоит на месте, молодежь после окончания школы уезжает в город, лишь старое поколение остаётся доживать свой век. Приехав в холодную Москву на заработки, Айка вынуждена оставить своего новорожденного ребенка в роддоме. Однако вскоре ей предстоит понять, способна ли она смириться с разлукой.

    Возраст: 16+ (зрителям, достигшим 16 лет)
    Продолжительность: 01: 53: 36
    Качество видео: WEB-DLRip
    Субтитры: отсутствуют
    Видео: AVC/H.264, 1280x720, ~2000 Kbps
    Аудио: AC3, 6 ch, 384 Kbps
    General
    Unique ID : 7823758356972261330051480558590690919 (0x5E2CD11986B2F3A890A78BEC3AB0667)
    Complete name : /media/win/TORRENT/UPLOAD_TORRENTS/Ayka.2018.mkv
    Format : Matroska
    Format version : Version 4
    File size : 1.89 GiB
    Duration : 1 h 53 min
    Overall bit rate : 2 386 kb/s
    Movie name : Айка.2018
    Encoded date : UTC 2020-01-22 04: 35: 25
    Writing application : HandBrake 1.3.1 2020010600
    Writing library : Lavf58.29.100
    ErrorDetectionType : Per level 1
    Video
    ID : 1
    Format : AVC
    Format/Info : Advanced Video Codec
    Format profile : High10@L4.1
    Format settings : CABAC/6 Ref Frames
    Format settings, CABAC : Yes
    Format settings, Reference frames : 6 frames
    Codec ID : V_MPEG4/ISO/AVC
    Duration : 1 h 53 min
    Bit rate : 2 000 kb/s
    Width : 1 280 pixels
    Height : 720 pixels
    Display aspect ratio : 16: 9
    Frame rate mode : Constant
    Frame rate : 24.000 FPS
    Color space : YUV
    Chroma subsampling : 4: 2: 0
    Bit depth : 10 bits
    Scan type : Progressive
    Bits/(Pixel*Frame) : 0.090
    Stream size : 1.55 GiB (82%)
    Writing library : x264 core 159 r2991 1771b55
    Encoding settings : cabac=1/ref=6/deblock=1: 0: 0/analyse=0x3: 0x113/me=umh/subme=9/psy=1/psy_rd=1, 00: 0, 00/mixed_ref=1/me_range=24/chroma_me=1/trellis=1/8x8dct=1/cqm=0/deadzone=21, 11/fast_pskip=1/chroma_qp_offset=-2/threads=22/lookahead_threads=2/sliced_threads=0/nr=0/decimate=1/interlaced=0/bluray_compat=0/constrained_intra=0/bframes=6/b_pyramid=2/b_adapt=2/b_bias=0/direct=1/weightb=1/open_gop=0/weightp=2/keyint=240/keyint_min=24/scenecut=40/intra_refresh=0/rc_lookahead=40/rc=2pass/mbtree=1/bitrate=2000/ratetol=1, 0/qcomp=0, 60/qpmin=0/qpmax=81/qpstep=4/cplxblur=20, 0/qblur=0, 5/vbv_maxrate=150000/vbv_bufsize=187500/nal_hrd=none/filler=0/ip_ratio=1, 40/aq=1: 1, 00
    Default : Yes
    Forced : No
    Color range : Limited
    Color primaries : BT.709
    Transfer characteristics : BT.709
    Matrix coefficients : BT.709
    DURATION : 01: 53: 35, 959000000
    Audio
    ID : 2
    Format : AC-3
    Format/Info : Audio Coding 3
    Commercial name : Dolby Digital
    Codec ID : A_AC3
    Duration : 1 h 53 min
    Bit rate mode : Constant
    Bit rate : 384 kb/s
    Channel(s) : 6 channels
    Channel layout : L R C LFE Ls Rs
    Sampling rate : 48.0 kHz
    Frame rate : 31.250 FPS (1536 SPF)
    Compression mode : Lossy
    Stream size : 312 MiB (16%)
    Title : AC-3; 16 bits 48 Khz; 5.1ch 384 Kbps; CBR | (iTunes)
    Language : Russian
    Service kind : Complete Main
    Default : Yes
    Forced : No
    DURATION : 01: 53: 36, 000000000


    Онлайн видео Айка (2018) WEB-DLRip [H.264


    Айка (2018) WEB-DLRip [H.264/720p-LQ] [10 bit] [PR]

    Айка (2018) WEB-DLRip [H.264 / 720p-LQ] [10 bit] [PR] торрент скачать бесплатно
    Рейтинг →
     (голосов: 1, оценка 3/5, голосовать можно 1 раз )

    Другие торренты по теме:

  • Айка (2018) WEB-DLRip [H.264 / 1080p-LQ] [AD]


    • Комментарии (0):

      Информация

      Информация

        Посетители, находящиеся в группе Гости, не могут оставлять комментарии в данной новости.

        ↓ Меню




        ↓ Опрос

        Вы добавили сайт в закладки?
        Да
        Нет


        Популярное