.
Авторизация | Регистрация
bitok.xyz
Торрент скачать бесплатно Фильмы торрент скачать Убийство сестры Джордж / The Killing of Sister George (1968) DVDRip [H.264] торрент скачать бесплатно


    Убийство сестры Джордж / The Killing of Sister George (1968) DVDRip [H.264] торрент скачать бесплатно

    Дата: 1-02-2020, 05:00 | .torrent скачали: 0

    Убийство сестры Джордж / The Killing of Sister George (1968) DVDRip [H.264]Производство: США/Palomar Pictures Corporation, The Associates Aldrich Company Inc.
    Жанр: Драма
    Режиссер: Роберт Олдрич
    Продюсер: Роберт Олдрич, Уолтер Блейк

    Актеры
    Берил Рид, Сюзанна Йорк, Корэл Браун, Рональд Фрэйзер, Патриция Медина, Хью Паддик, Сирил Делеванти, Сиви Аберг, Уильям Бекли, Илэйн Черч

    Описание

    Джордж, актриса не первой молодости, живет со своей любовницей и играет роль приветливой нянечки в мыльной опере. Но ее персонажа должны убить… И Джордж понимает, что единственной другой работой, которую она могла бы получить, может стать только озвучивание роли коровы в детской телепередаче. Ее жизнь начинает рушиться…

    Рейтинг MPAA: R (лицам до 17 лет обязательно присутствие взрослого)
    Релиз от: Охрана (NNMCLUB)
    Продолжительность: 02: 13: 47
    Качество видео: DVDRip
    Перевод: Многоголосый профессиональный, НТВ
    Субтитры: Английские
    Видео: AVC/H.264, 720x400, ~1952 Kbps
    Аудио 1: AC3, 2 ch, 192 Kbps, 48.0 kHz – Русский
    Аудио 2: AC3, 2 ch, 128 Kbps, 48.0 kHz – Английский
    Общее
    Уникальный идентификатор : 178640911599285681395068001654927748128 (0x8664FCF3BD50658CAE53CB7E6A076C20)
    Полное имя : B: DownloadsУбийство сестры Джордж. 1968. NNMCLUB.mkv
    Формат : Matroska
    Версия формата : Version 4/Version 2
    Размер файла : 2, 13 Гбайт
    Продолжительность : 2 ч. 13 м.
    Общий поток : 2274 Кбит/сек
    Дата кодирования : UTC 2020-01-31 12: 01: 17
    Программа кодирования : mkvmerge v7.9.0 (\'Birds\') 64bit
    Библиотека кодирования : libebml v1.3.1 + libmatroska v1.4.2
    Видео
    Идентификатор : 1
    Формат : AVC
    Формат/Информация : Advanced Video Codec
    Профиль формата : High@L4.1
    Настройки формата : CABAC/12 Ref Frames
    Параметр CABAC формата : Да
    Параметр RefFrames формата : 12 кадров
    Идентификатор кодека : V_MPEG4/ISO/AVC
    Продолжительность : 2 ч. 13 м.
    Битрейт : 1952 Кбит/сек
    Ширина : 720 пикселей
    Высота : 400 пикселей
    Соотношение сторон : 16: 9
    Режим частоты кадров : Постоянный
    Частота кадров : 25, 000 кадров/сек
    Цветовое пространство : YUV
    Субдискретизация насыщенности : 4: 2: 0
    Битовая глубина : 8 бит
    Тип развёртки : Прогрессивная
    Бит/(Пиксели*Кадры) : 0.271
    Размер потока : 1, 82 Гбайт (86%)
    Заголовок : The Killing of Sister George
    Библиотека кодирования : x264 core 146 r2538 121396c
    Настройки программы : cabac=1/ref=12/deblock=1: -1: -1/analyse=0x3: 0x113/me=umh/subme=10/psy=1/psy_rd=1.00: 0.10/mixed_ref=1/me_range=32/chroma_me=1/trellis=2/8x8dct=1/cqm=0/deadzone=21, 11/fast_pskip=0/chroma_qp_offset=-3/threads=6/lookahead_threads=1/sliced_threads=0/nr=0/decimate=0/interlaced=0/bluray_compat=0/constrained_intra=0/bframes=7/b_pyramid=2/b_adapt=2/b_bias=0/direct=3/weightb=1/open_gop=0/weightp=2/keyint=250/keyint_min=25/scenecut=40/intra_refresh=0/rc_lookahead=60/rc=2pass/mbtree=1/bitrate=1952/ratetol=1.0/qcomp=0.60/qpmin=0/qpmax=69/qpstep=4/cplxblur=20.0/qblur=0.5/vbv_maxrate=14000/vbv_bufsize=14000/nal_hrd=none/filler=0/ip_ratio=1.40/aq=1: 1.00
    Язык : English
    Default : Да
    Forced : Нет
    Аудио #1
    Идентификатор : 2
    Формат : AC-3
    Формат/Информация : Audio Coding 3
    Идентификатор кодека : A_AC3
    Продолжительность : 2 ч. 13 м.
    Вид битрейта : Постоянный
    Битрейт : 192 Кбит/сек
    Каналы : 2 канала
    Расположение каналов : Front: L R
    Частота : 48, 0 КГц
    Частота кадров : 31, 250 кадров/сек (1536 SPF)
    Битовая глубина : 16 бит
    Метод сжатия : С потерями
    Размер потока : 184 Мбайт (8%)
    Заголовок : Многоголосый закадровый
    Язык : Russian
    ServiceKind/String : Complete Main
    Default : Да
    Forced : Нет
    Аудио #2
    Идентификатор : 3
    Формат : AC-3
    Формат/Информация : Audio Coding 3
    Идентификатор кодека : A_AC3
    Продолжительность : 2 ч. 13 м.
    Вид битрейта : Постоянный
    Битрейт : 128 Кбит/сек
    Каналы : 2 канала
    Расположение каналов : Front: L R
    Частота : 48, 0 КГц
    Частота кадров : 31, 250 кадров/сек (1536 SPF)
    Битовая глубина : 16 бит
    Метод сжатия : С потерями
    Размер потока : 122 Мбайт (6%)
    Заголовок : Английский
    Язык : English
    ServiceKind/String : Complete Main
    Default : Нет
    Forced : Нет
    Текст
    Идентификатор : 4
    Формат : UTF-8
    Идентификатор кодека : S_TEXT/UTF8
    Идентификатор кодека/Информация : UTF-8 Plain Text
    Продолжительность : 2 ч. 12 м.
    Битрейт : 70 бит/сек
    ElementCount : 1789
    Размер потока : 68, 6 Кбайт (0%)
    Заголовок : Full
    Язык : English
    Default : Нет
    Forced : Нет

    Скриншоты для ознакомления




    Все одноименные релизы в Клубе
    Время раздачи: с 13: 00 до 01: 00 МСК, выходные круглосуточно (до появления первых 3-5 скачавших)

    Онлайн видео Убийство сестры Джордж


    Убийство сестры Джордж/The Killing of Sister George (1968) DVDRip [H.264]

    Убийство сестры Джордж / The Killing of Sister George (1968) DVDRip [H.264] торрент скачать бесплатно
    Рейтинг →
     (голосов: 1, оценка 5/5, голосовать можно 1 раз )

    Другие торренты по теме:

  • Убийство / Убийство из-за угла / Amsal / Assassination (2015) BDRip [H.265 / 1080p] [10-bit] [DVO] [PR]
  • Нежное убийство / The Soft Kill (1994) DVDRip
  • Подозрения мистера Уичера. Убийство на Энджел Лэйн / The Suspicions of Mr Whicher: The Murder in Angel Lane (2013) HDTVRip
  • Чисто английское убийство (2 серии) (1974) DVDRip [H.264]
  • Убийство (The Killing) / (Сезон 4, серии 6 из 6) LostFilm (2014) [MP4|1280x720] <WEBRip H.264>
  • Глэдис Митчелл | Убийства в Солтмарше. Убийство в опере (2014) [FB2]
  • Убийство у моря / Tyskungen (2013) BDRip [H.264 / 720p-LQ] скачать через торрент бесплатно
  • Убийство у моря / Tyskungen (2013) HDRip скачать через торрент бесплатно


    • Комментарии (0):

      Информация

      Информация

        Посетители, находящиеся в группе Гости, не могут оставлять комментарии в данной новости.

        ↓ Меню




        ↓ Опрос

        Вы добавили сайт в закладки?
        Да
        Нет


        Популярное