.
Авторизация | Регистрация
bitok.xyz
Торрент скачать бесплатно Фильмы торрент скачать Человек в железной маске / The Man in the Iron Mask (1976) DVDRip [H.264] торрент скачать бесплатно


    Человек в железной маске / The Man in the Iron Mask (1976) DVDRip [H.264] торрент скачать бесплатно

    Дата: 1-02-2020, 05:00 | .torrent скачали: 0

    Человек в железной маске / The Man in the Iron Mask (1976) DVDRip [H.264]Производство: США, Великобритания/ITC Entertainment, Norman Rosemont Productions
    Жанр: Приключения, история
    Режиссер: Майк Ньюэлл

    Актеры
    Ричард Чемберлен, Патрик МакГуэн, Луи Журдан, Дженни Агаттер, Иэн Холм, Ральф Ричардсон, Вивьен Мерчант, Бренда Брюс, Эзмонд Найт, Годфри Куигли

    Описание

    Фильм снят по мотивам романа Александра Дюма (отца) Виконт де Бражелон (Железная маска).
    Париж, 1662 год. Франция задыхается от голода, нищеты и бессмысленных войн. Все это — следствие правления молодого Людовика XIV, который купается в роскоши и проводит время с любовницами. Однако, у короля есть брат близнец (Филипп), которого королевская семья считает умершим во младенчестве. О том, что он жив, известно лишь Кольберу и Д’Артаньяну. Их люди похищают Филиппа из сельского домика, где он рос и воспитывался, и отвозят в Бастилию. Когда король узнает, что его брат-близнец Филипп не умер при рождении, а находится в заключении в Бастилии, он приказывает перевести его в крепость Сен-Маргарет и навеки скрыть лицо Филиппа под железной маской. Интендант финансов Кольбер и Д\'Артаньян задумывают похищение Филиппа, чтобы подменить короля на балу у Фуке в замке Во...

    Продолжительность: 01: 37: 51
    Качество видео: DVDRip
    Перевод: Дублированный (со вставками AVO)
    Субтитры: отсутствуют
    Видео: AVC/H.264, 704x528, ~1700 kbps
    Аудио 1: AC3, 2 ch, 192 kbps - Русский DUB (Ленфильм)
    Аудио 2: AC3, 2 ch, 224 kbps - Английский (Оригинал)
    Общее
    Уникальный идентификатор : 206337221384071148189169185138638784976 (0x9B3B1A73DE85A7379947D58AEA2B09D0)
    Полное имя : F: -Человек в железной маске. 1977Человек в железной маске. 1977.mkv
    Формат : Matroska
    Версия формата : Version 4/Version 2
    Размер файла : 1, 45 Гбайт
    Продолжительность : 1 ч. 37 м.
    Общий поток : 2118 Кбит/сек
    Название фильма : Release for Topmost
    Дата кодирования : UTC 2020-01-30 04: 35: 10
    Программа кодирования : mkvmerge v6.2.0 (\'Promised Land\') built on Apr 28 2013 12: 22: 01
    Библиотека кодирования : libebml v1.3.0 + libmatroska v1.4.0
    Attachment : Yes
    Видео
    Идентификатор : 1
    Формат : AVC
    Формат/Информация : Advanced Video Codec
    Профиль формата : High@L4.1
    Параметр CABAC формата : Да
    Параметр ReFrames формата : 12 кадров
    Идентификатор кодека : V_MPEG4/ISO/AVC
    Продолжительность : 1 ч. 37 м.
    Битрейт : 1700 Кбит/сек
    Ширина : 704 пикселя
    Высота : 528 пикселей
    Соотношение сторон : 4: 3
    Режим частоты кадров : Постоянный
    Частота кадров : 25, 000 кадров/сек
    Цветовое пространство : YUV
    Субдискретизация насыщенности : 4: 2: 0
    Битовая глубина : 8 бит
    Тип развёртки : Прогрессивная
    Бит/(Пиксели*Кадры) : 0.183
    Размер потока : 1, 13 Гбайт (78%)
    Заголовок : Человек в железной маске.1977 /Release for Topmost/
    Библиотека кодирования : x264 core 146 r2538 121396c
    Настройки программы : cabac=1/ref=12/deblock=1: -3: -3/analyse=0x3: 0x113/me=umh/subme=11/psy=1/psy_rd=1.00: 0.15/mixed_ref=1/me_range=32/chroma_me=1/trellis=2/8x8dct=1/cqm=0/deadzone=21, 11/fast_pskip=0/chroma_qp_offset=-3/threads=12/lookahead_threads=2/sliced_threads=0/nr=0/decimate=0/interlaced=0/bluray_compat=0/constrained_intra=0/bframes=8/b_pyramid=2/b_adapt=2/b_bias=0/direct=1/weightb=1/open_gop=0/weightp=2/keyint=240/keyint_min=23/scenecut=40/intra_refresh=0/rc_lookahead=40/rc=2pass/mbtree=0/bitrate=1700/ratetol=1.0/qcomp=0.60/qpmin=0/qpmax=69/qpstep=4/cplxblur=20.0/qblur=0.5/vbv_maxrate=14000/vbv_bufsize=14000/nal_hrd=none/filler=0/ip_ratio=1.40/pb_ratio=1.30/aq=1: 0.90
    Язык : English
    Default : Да
    Forced : Нет
    Аудио #1
    Идентификатор : 2
    Формат : AC-3
    Формат/Информация : Audio Coding 3
    Расширение режима : CM (complete main)
    Параметр Endianness формата : Big
    Идентификатор кодека : A_AC3
    Продолжительность : 1 ч. 37 м.
    Вид битрейта : Постоянный
    Битрейт : 192 Кбит/сек
    Каналы : 2 канала
    Расположение каналов : Front: L R
    Частота : 48, 0 КГц
    Битовая глубина : 16 бит
    Метод сжатия : С потерями
    Размер потока : 134 Мбайт (9%)
    Язык : Russian
    Default : Да
    Forced : Нет
    Аудио #2
    Идентификатор : 3
    Формат : AC-3
    Формат/Информация : Audio Coding 3
    Расширение режима : CM (complete main)
    Параметр Endianness формата : Big
    Идентификатор кодека : A_AC3
    Продолжительность : 1 ч. 37 м.
    Вид битрейта : Постоянный
    Битрейт : 224 Кбит/сек
    Каналы : 2 канала
    Расположение каналов : Front: L R
    Частота : 48, 0 КГц
    Битовая глубина : 16 бит
    Метод сжатия : С потерями
    Размер потока : 157 Мбайт (11%)
    Язык : English
    Default : Нет
    Forced : Нет


    Онлайн видео Человек в железной маске


    Человек в железной маске/The Man in the Iron Mask (1976) DVDRip [H.264]

    Человек в железной маске / The Man in the Iron Mask (1976) DVDRip [H.264] торрент скачать бесплатно
    Рейтинг →
     (голосов: 1, оценка 5/5, голосовать можно 1 раз )

    Другие торренты по теме:

  • NG. Тайны истории. Человек в железной маске / Mystery Files. Man in The Iron Mask (2009) HDTV [H.264 / 1080i]
  • Человек в железной маске / The Man in the Iron Mask (1998) BDRip [H.264 / 720p]


    • Комментарии (0):

      Информация

      Информация

        Посетители, находящиеся в группе Гости, не могут оставлять комментарии в данной новости.

        ↓ Меню




        ↓ Опрос

        Вы добавили сайт в закладки?
        Да
        Нет


        Популярное