.
Авторизация | Регистрация
bitok.xyz
Торрент скачать бесплатно Фильмы торрент скачать Песня о любви: Обещание / Ai Uta: Yakusoku no Nakuhito / Aiuta: My Promise to Nakuhito (2019) HDRip [DVO] торрент скачать бесплатно


    Песня о любви: Обещание / Ai Uta: Yakusoku no Nakuhito / Aiuta: My Promise to Nakuhito (2019) HDRip [DVO] торрент скачать бесплатно

    Дата: 1-02-2020, 05:00 | .torrent скачали: 0

    Песня о любви: Обещание / Ai Uta: Yakusoku no Nakuhito / Aiuta: My Promise to Nakuhito (2019) HDRip [DVO]Производство: Япония, Toei Company Film, Happinet
    Жанр: Драма, мелодрама
    Режиссер: Ясухиро Кавамура
    Продюсер: Кэнтаро Коикэ, Akihiro Hiraishi, Masahiro Iida

    Актеры
    Хироки Иидзима, Кая Киёхара, Юри Накамура, Михо Накаяма, Рико Наруми, Сатоси Никайдо, Сюн Нисимэ, Тору Номагути, Эйта Окуно, Хадзуки Симидзу

    Описание

    У Тору нет никакого желания найти свою любовь. Но однажды он встретил своего давнего друга Татсуя и вскоре нашел поэму, которая положила начало изменениям в его жизни. Решив, что эти два события - знак, он начал искать свою любовь и вскоре встретил Наги.

    Релиз от: Rip by vitolinform
    Продолжительность: 02: 07: 55
    Качество видео: HDRip
    Перевод: Двуголосый любительский (STEPonee)
    Субтитры: отсутствуют
    Видео: Xvid, 720х384, ~1438 kbps
    Аудио 1: AC3, 2 ch, 192 Кbps | Русский (DVO)
    Аудио 2: AC3, 6 ch, 448 Кbps | Японский - отдельно
    Общее
    Полное имя : C: Pesnya.o.Lyubvi.Obeschanie.2019.HDRipPesnya.o.Lyubvi.Obeschanie.2019.HDRip.avi
    Формат : AVI
    Формат/Информация : Audio Video Interleave
    Размер файла : 1, 46 Гбайт
    Продолжительность : 2 ч. 7 м.
    Общий поток : 1639 Кбит/сек
    Название фильма : Песня о любви: Обещание/Ai Uta: Yakusoku no Nakuhito (2019) HDRip
    Режиссёр : Ясухиро Кавамура/Yasuhiro Kawamura
    Жанр : Драма, мелодрама
    Программа кодирования : VirtualDubMod 1.5.10.2 (build 2542/release)
    Формат оригинала/Имя : Художественный фильм
    Авторское право : Япония, Toei Company Film, Happinet
    Примечание : Rip by vitolinform
    Видео
    Идентификатор : 0
    Формат : MPEG-4 Visual
    Профиль формата : Advanced Simple@L5
    Настройки формата : BVOP2
    Параметр BVOP формата : 2
    Параметр QPel формата : Нет
    Параметр GMC формата : Без точки перехода
    Параметр матрицы формата : Default (MPEG)
    Идентификатор кодека : XVID
    Идентификатор кодека/Подсказка : XviD
    Продолжительность : 2 ч. 7 м.
    Битрейт : 1438 Кбит/сек
    Ширина : 720 пикселей
    Высота : 384 пикселя
    Соотношение сторон : 1, 85: 1
    Частота кадров : 23, 976 (24000/1001) кадра/сек
    Цветовое пространство : YUV
    Субдискретизация насыщенности : 4: 2: 0
    Битовая глубина : 8 бит
    Тип развёртки : Прогрессивная
    Метод сжатия : С потерями
    Бит/(Пиксели*Кадры) : 0.217
    Размер потока : 1, 28 Гбайт (88%)
    Библиотека кодирования : XviD 67
    Аудио
    Идентификатор : 1
    Формат : AC-3
    Формат/Информация : Audio Coding 3
    Коммерческое название : Dolby Digital
    Идентификатор кодека : 2000
    Продолжительность : 2 ч. 7 м.
    Вид битрейта : Постоянный
    Битрейт : 192 Кбит/сек
    Каналы : 2 канала
    ChannelLayout : L R
    Частота : 48, 0 КГц
    Частота кадров : 31, 250 кадров/сек (1536 SPF)
    Битовая глубина : 16 бит
    Метод сжатия : С потерями
    Размер потока : 176 Мбайт (12%)
    Выравнивание : Разделение по промежуткам
    Продолжительность промежутка : 42 мс. (1, 00 видеокадр)
    Время предзагрузки промежутка : 500 мс.
    Заголовок : Russian (DVO STEPonee)
    ServiceKind/String : Complete Main
    Общее
    Полное имя : C: Pesnya.o.Lyubvi.Obeschanie.2019.HDRipPesnya.o.Lyubvi.Obeschanie.2019.HDRip_jap.ac3
    Формат : AC-3
    Формат/Информация : Audio Coding 3
    Коммерческое название : Dolby Digital
    Размер файла : 410 Мбайт
    Продолжительность : 2 ч. 7 м.
    Режим общего битрейта : Постоянный
    Общий поток : 448 Кбит/сек
    Аудио
    Формат : AC-3
    Формат/Информация : Audio Coding 3
    Коммерческое название : Dolby Digital
    Продолжительность : 2 ч. 7 м.
    Вид битрейта : Постоянный
    Битрейт : 448 Кбит/сек
    Каналы : 6 каналов
    ChannelLayout : L R C LFE Ls Rs
    Частота : 48, 0 КГц
    Частота кадров : 31, 250 кадров/сек (1536 SPF)
    Битовая глубина : 16 бит
    Метод сжатия : С потерями
    Размер потока : 410 Мбайт (100%)
    ServiceKind/String : Complete Main


    Онлайн видео Песня о любви: Обещание


    Песня о любви: Обещание/Ai Uta: Yakusoku no Nakuhito/Aiuta: My Promise to Nakuhito (2019) HDRip [DVO]

    Песня о любви: Обещание / Ai Uta: Yakusoku no Nakuhito / Aiuta: My Promise to Nakuhito (2019) HDRip [DVO] торрент скачать бесплатно
    Рейтинг →
     (голосов: 1, оценка 5/5, голосовать можно 1 раз )

    Другие торренты по теме:

  • Toaru Hikuushi e no Koiuta | The Pilots Love Song | Песня любви одному пилоту [2014, TV, 13 эп.] BDrip 1080p raw скачать через торрент бесплатно
  • Песня первой любви (1958) SATRip [H.264] скачать через торрент бесплатно
  • Песня первой любви (1958) SATRip скачать через торрент бесплатно


    • Комментарии (0):

      Информация

      Информация

        Посетители, находящиеся в группе Гости, не могут оставлять комментарии в данной новости.

        ↓ Меню




        ↓ Опрос

        Вы добавили сайт в закладки?
        Да
        Нет


        Популярное