ВАЖНО! Сайт скоро заблокируют! Подписывайся на наш канал в Telegram https://t.me/torrentok и получи доступ к торрентам без ограничений!
.
Авторизация | Регистрация
bitok.xyz
Торрент скачать бесплатно Фильмы торрент скачать Закон и порядок / Law and Order (1953) BDRip [H.264] торрент скачать бесплатно


    Закон и порядок / Law and Order (1953) BDRip [H.264] торрент скачать бесплатно

    Дата: 1-02-2020, 05:00 | .torrent скачали: 2

    Закон и порядок / Law and Order (1953) BDRip [H.264]Производство: США/Universal International Pictures (UI or U-I)
    Жанр: Вестерн
    Режиссер: Нэйтан Юран
    Продюсер: Джон В. Роджерс

    Актеры
    Рональд Рейган, Дороти Мэлоун, Престон Фостер, Алекс Николь, Рут Хэмптон, Расселл Джонсон, Бэрри Келли, Чабби Джонсон, Джек Келли, Деннис Уивер

    Описание

    1882 год. Аризона. США. Шериф Фрэйм Джонсон зорко следит за нарушителями закона на вверенной ему территории — здесь правят закон и порядок. В один из дней он ловит известного преступника по кличке Дуранго Кид и сажает его в тюрьму, чтобы судить по закону. Но возмущенные жители городка требуют линчевать пойманного злодея без суда и следствия. Фрэйм берется за оружие чтобы отстоять Дуранго, и доказать толпе, что закон превыше эмоций. Спустя некоторое время герой понимает, что он устал выполнять нелегкие обязанности шерифа и решает уехать со своей верной подругой Джани на купленное им ранчо в Коттонвудс. Спокойная жизнь однако, наступит не скоро….

    Возраст: 0+ (для любой зрительской аудитории)
    Релиз от: Охрана (NNMCLUB)
    Продолжительность: 01: 19: 51
    Качество видео: BDRip
    Перевод: Многоголосый профессиональный, Светла
    Субтитры: Английские
    Видео: AVC/H.264, 864x624, ~2950 Kbps
    Аудио 1: AC3, 2 ch, 192 Kbps, 48.0 kHz – Русский
    Аудио 2: AC3, 2 ch, 192 Kbps, 48.0 kHz – Английский
    Общее
    Уникальный идентификатор : 242247677404615828998291281398011322645 (0xB63F34A15C8A5CE2AC7E327B267CE115)
    Полное имя : B: DownloadsЗакон и порядок. 1953. NNMCLUB.mkv
    Формат : Matroska
    Версия формата : Version 4/Version 2
    Размер файла : 1, 86 Гбайт
    Продолжительность : 1 ч. 19 м.
    Общий поток : 3336 Кбит/сек
    Дата кодирования : UTC 2020-01-30 22: 02: 57
    Программа кодирования : mkvmerge v7.9.0 (\'Birds\') 64bit
    Библиотека кодирования : libebml v1.3.1 + libmatroska v1.4.2
    Видео
    Идентификатор : 1
    Формат : AVC
    Формат/Информация : Advanced Video Codec
    Профиль формата : High@L4.1
    Настройки формата : CABAC/12 Ref Frames
    Параметр CABAC формата : Да
    Параметр RefFrames формата : 12 кадров
    Идентификатор кодека : V_MPEG4/ISO/AVC
    Продолжительность : 1 ч. 19 м.
    Битрейт : 2950 Кбит/сек
    Ширина : 864 пикселя
    Высота : 624 пикселя
    Соотношение сторон : 1, 385
    Режим частоты кадров : Постоянный
    Частота кадров : 23, 976 (24000/1001) кадра/сек
    Цветовое пространство : YUV
    Субдискретизация насыщенности : 4: 2: 0
    Битовая глубина : 8 бит
    Тип развёртки : Прогрессивная
    Бит/(Пиксели*Кадры) : 0.228
    Размер потока : 1, 65 Гбайт (88%)
    Заголовок : Law and Order
    Библиотека кодирования : x264 core 146 r2538 121396c
    Настройки программы : cabac=1/ref=12/deblock=1: -1: -1/analyse=0x3: 0x113/me=umh/subme=10/psy=1/psy_rd=1.00: 0.10/mixed_ref=1/me_range=32/chroma_me=1/trellis=2/8x8dct=1/cqm=0/deadzone=21, 11/fast_pskip=0/chroma_qp_offset=-3/threads=6/lookahead_threads=1/sliced_threads=0/nr=0/decimate=0/interlaced=0/bluray_compat=0/constrained_intra=0/bframes=7/b_pyramid=2/b_adapt=2/b_bias=0/direct=3/weightb=1/open_gop=0/weightp=2/keyint=250/keyint_min=25/scenecut=40/intra_refresh=0/rc_lookahead=60/rc=2pass/mbtree=1/bitrate=2950/ratetol=1.0/qcomp=0.60/qpmin=0/qpmax=69/qpstep=4/cplxblur=20.0/qblur=0.5/vbv_maxrate=14000/vbv_bufsize=14000/nal_hrd=none/filler=0/ip_ratio=1.40/aq=1: 1.00
    Язык : English
    Default : Да
    Forced : Нет
    Аудио #1
    Идентификатор : 2
    Формат : AC-3
    Формат/Информация : Audio Coding 3
    Идентификатор кодека : A_AC3
    Продолжительность : 1 ч. 19 м.
    Вид битрейта : Постоянный
    Битрейт : 192 Кбит/сек
    Каналы : 2 канала
    Расположение каналов : Front: L R
    Частота : 48, 0 КГц
    Частота кадров : 31, 250 кадров/сек (1536 SPF)
    Битовая глубина : 16 бит
    Метод сжатия : С потерями
    Размер потока : 110 Мбайт (6%)
    Заголовок : Профессиональный многоголосый. Светла
    Язык : Russian
    ServiceKind/String : Complete Main
    Default : Да
    Forced : Нет
    Аудио #2
    Идентификатор : 3
    Формат : AC-3
    Формат/Информация : Audio Coding 3
    Идентификатор кодека : A_AC3
    Продолжительность : 1 ч. 19 м.
    Вид битрейта : Постоянный
    Битрейт : 192 Кбит/сек
    Каналы : 2 канала
    Расположение каналов : Front: L R
    Частота : 48, 0 КГц
    Частота кадров : 31, 250 кадров/сек (1536 SPF)
    Битовая глубина : 16 бит
    Метод сжатия : С потерями
    Размер потока : 110 Мбайт (6%)
    Заголовок : Английский
    Язык : English
    ServiceKind/String : Complete Main
    Default : Нет
    Forced : Нет
    Текст
    Идентификатор : 4
    Формат : UTF-8
    Идентификатор кодека : S_TEXT/UTF8
    Идентификатор кодека/Информация : UTF-8 Plain Text
    Продолжительность : 1 ч. 17 м.
    Битрейт : 69 бит/сек
    ElementCount : 1078
    Размер потока : 39, 5 Кбайт (0%)
    Заголовок : Full
    Язык : English
    Default : Нет
    Forced : Нет

    Скриншоты для ознакомления




    Все одноименные релизы в Клубе
    Время раздачи: с 13: 00 до 01: 00 МСК, выходные круглосуточно (до появления первых 3-5 скачавших)

    Онлайн видео Закон и порядок


    Закон и порядок/Law and Order (1953) BDRip [H.264]

    Закон и порядок / Law and Order (1953) BDRip [H.264] торрент скачать бесплатно
    Рейтинг →
     (голосов: 1, оценка 4/5, голосовать можно 1 раз )

    Другие торренты по теме:

  • Закон и порядок / Law and Order (1953) DVDRip [H.264]
  • Юрий Уленгов, Наиль Выборнов | S-T-I-K-S: Закон и порядок (2019) [FB2]
  • Юрий Уленгов, Наиль Выборнов | S-T-I-K-S. Закон и порядок (2019) [MP3]
  • Юрий Уленгов, Наиль Выборнов | S-T-I-K-S: Закон и порядок (2019) [FB2]


    • Комментарии (0):

      Информация

      Информация

        Посетители, находящиеся в группе Гости, не могут оставлять комментарии в данной новости.

        ↓ Меню




        Популярное