.
Авторизация | Регистрация
bitok.xyz
» » Тайны следствия (2002) WEBRip (сезон 2, серии 1-12 из 12) торрент скачать бесплатно


    Тайны следствия (2002) WEBRip (сезон 2, серии 1-12 из 12) торрент скачать бесплатно

    Дата: 3-02-2016, 04:00 | .torrent скачали: 422

    Тайны следствия (2002) WEBRip (сезон 2, серии 1-12 из 12)Производство: Россия/Студия Панорама, ООО Новый русский сериал
    Жанр: детектив, криминал
    Режиссер: Илья Макаров

    Актеры
    Анна Ковальчук, Константин Шелестун, Вячеслав Захаров, Сергей Барышев, Мирослав Малич, Евгений Дятлов, Олег Чернов, Валерий Полетаев, Юлия Терентьева, Злата Ильченко, Елена Ложкина, Эмилия Спивак, Петр Журавлёв, Олег Алмазов, Игорь Григорьев , Александр Новиков , Андрей Шарков, Юлия Яковлева, Александр Чевычелов, Арсений Астраханцев, Анатолий Журавин, Геннадий Алимпиев, Наталья Шапошникова, Владимир Акимов , Алла Довлатова, Филимон Диакуикизи, Михаил Долгинин, Михаил Лучко, Александр Баргман и др.

    Описание

    Приступив к работе в новом качестве - государственного обвинителя в суде - Мария Швецова продолжает активно участвовать в раскрытии многих запутанных и жестоких преступлений. И работать ей приходится бок о бок с молодой и амбициозной практиканткой Женей, которая пытается соперничать со Швецовой не только в сфере профессиональных интересов.Многое меняется и в личной жизни героини - в неё влюбляется бизнесмен, дело которого она расследует...

    Продолжительность: ~00: 45: 00 серия
    Качество видео: WEBRip
    Видео: Xvid, 720x540 (4: 3), ~2016 Kbps
    Аудио: AC3, 2 ch, 192 Kbps, CBR Код:
    Общее
    Полное имя : D:Мои фильмыTajny_sledstvija_S2_1-12iz12_2002_XviD_WEBRip1. Заказчик (1 сер.).avi
    Формат : AVI
    Формат/Информация : Audio Video Interleave
    Размер файла : 745 Мбайт
    Продолжительность : 47 м.
    Общий поток : 2217 Кбит/сек
    Библиотека кодирования : VirtualDub build 35491/release
    Видео
    Идентификатор : 0
    Формат : MPEG-4 Visual
    Профиль формата : Advanced Simple@L5
    Параметр BVOP формата : 2
    Параметр QPel формата : Нет
    Параметр GMC формата : Без точки перехода
    Параметр матрицы формата : Default (H.263)
    Идентификатор кодека : XVID
    Идентификатор кодека/Подсказка : XviD
    Продолжительность : 47 м.
    Битрейт : 2016 Кбит/сек
    Ширина : 720 пикселей
    Высота : 540 пикселей
    Соотношение сторон : 4:3
    Частота кадров : 25, 000 кадров/сек
    Цветовое пространство : YUV
    Субдискретизация насыщенности : 4:2:0
    Битовая глубина : 8 бит
    Тип развёртки : Прогрессивная
    Метод сжатия : С потерями
    Бит/(Пиксели*Кадры) : 0.207
    Размер потока : 678 Мбайт (91%)
    Библиотека кодирования : XviD 67
    Аудио
    Идентификатор : 1
    Формат : AC-3
    Формат/Информация : Audio Coding 3
    Расширение режима : CM (complete main)
    Параметр Endianness формата : Big
    Идентификатор кодека : 2000
    Продолжительность : 47 м.
    Вид битрейта : Постоянный
    Битрейт : 192 Кбит/сек
    Каналы : 2 канала
    Расположение каналов : Front: L R
    Частота : 48, 0 КГц
    Частота кадров : 31, 250 кадров/сек (1536 spf)
    Метод сжатия : С потерями
    Размер потока : 64, 5 Мбайт (9%)
    Выравнивание : Соединение по промежуткам
    Продолжительность промежутка : 40 мс. (1, 00 видеокадр)
    Время предзагрузки промежутка : 512 мс.


    Скриншоты для ознакомления




    Онлайн видео Тайны следствия (2002) WEBRip (сезон любимого сериала 2, серии 1



    Тайны следствия (2002) WEBRip (сезон 2, серии 1-12 из 12)
    Рейтинг →
     (голосов: 1, оценка 5/5, голосовать можно 1 раз )

    Другие торренты по теме:

  • Тайны следствия (2014) HDTV [H.264 / 1080i-LQ] (сезон 14, серия 1-8 из 16) (обновляемая) скачать через торрент бесплатно
  • Тайны следствия (2014) SATRip (сезон 14, серии 1-8 из 16) (обновляемая) скачать через торрент бесплатно
  • Тайны следствия (2015) SATRip (сезон 15, серии 1-3 из 12) (обновляемая) скачать через торрент бесплатно
  • Тайны следствия (2015) SATRip [H.264] (сезон 15, серии 1-3 из 12) (обновляемая) скачать через торрент бесплатно
  • Тайны следствия (2015) HDTV [H.264 / 1080i] (сезон 15, серии 1-16 из 16) скачать через торрент бесплатно
  • Тайны следствия (2001) WEBRip (сезон 1, серии 1-16 из 16)
  • Тайны следствия (2004) WEBRip (сезон 4, серии 1-12 из 12)
  • Тайны следствия (2003) WEBRip (сезон 3, серий 1-12 из 12)


    • Комментарии (0):

      Информация

      Информация

        Посетители, находящиеся в группе Гости, не могут оставлять комментарии в данной новости.

        ↓ Меню




        ↓ Опрос

        Вы добавили сайт в закладки?
        Да
        Нет


        Популярное

        Полицейский с Рублёвки. Новогодний беспредел 2 (2019) CamRip [AD]

        (скачиваний: 2276)
        Властелин колец: Трилогия / The Lord of the Rings: Trilogy (2001,2002,2003) BDRip [H.264] [Extended Editions] скачать через торрент бесплатно

        (скачиваний: 672)
        Властелин колец / The Lord of the Rings (2001,2002,2003) BDRip [Extended Edition] [H.264 / 1080p-LQ] [Hi10P]

        (скачиваний: 661)
        Начало / Inception (2010) BDRip [H.265 / 1080p]

        (скачиваний: 642)
        Властелин колец / The Lord of the Rings (2001,2002,2003) BDRip [1080p] [Extended Edition] [Трилогия]

        (скачиваний: 608)
        Квартирник НТВ у Маргулиса. Новогодний выпуск (31.12.2019) WEB-DL [H.264 / 1080p-LQ]

        (скачиваний: 456)
        Каникулы off-line (2018) WEBRip

        (скачиваний: 438)
        Хоббит: Трилогия / The Hobbit: Trilogy (2012, 2013, 2014) BDRip [H.265 / 1080p-LQ] [10-bit] [Расширенная версия]

        (скачиваний: 398)
        Властелин колец / The Lord of the Rings (2001,2002,2003) BDRip [1080p] [Extended Edition] [Трилогия] скачать через торрент бесплатно

        (скачиваний: 277)
        Во все тяжкие / Breaking Bad (2008-2013) BDRip [H.264 / 1080p] (сезон 1-5, серии 1-62 из 62) Кубик в Кубе, LostFilm скачать через торрент бесплатно

        (скачиваний: 256)