ВАЖНО! Сайт скоро заблокируют! Подписывайся на наш канал в Telegram https://t.me/torrentok и получи доступ к торрентам без ограничений!
.
Авторизация | Регистрация
bitok.xyz
Торрент скачать бесплатно КПК и мобильные торрент скачать Район №9 / District 9 (2009) HDRip [H.264] [MP4|1920x1038] торрент скачать бесплатно


    Район №9 / District 9 (2009) HDRip [H.264] [MP4|1920x1038] торрент скачать бесплатно

    Дата: 26-01-2018, 05:00 | .torrent скачали: 0

    Район №9 / District 9 (2009) HDRip [H.264] [MP4|1920x1038]Производство: ЮАР, США, Новая Зеландия, Канада/QED International
    Жанр: Фантастика, Триллер, Боевик, Драма
    Режиссер: Нил Бломкамп
    Продюсер: Кэролинн Каннингэм, Питер Джексон, Билл Блок
    Актеры: Шарлто Копли, Джейсон Коуп, Натали Болтт, Сильвен Страйк, Элизабет Мкандави, Джон Самнер, Уильям Аллен Янг, Грег Мелвилл-Смит, Ник Блейк, Морена Буса Сесатса

    Описание

    Более 20 лет назад инопланетяне установили первый контакт с Землей. Люди были готовы ко всему — от враждебного вторжения до невероятного технологического прорыва. Ни того, ни другого не произошло. Пришельцы оказались беженцами со своей собственной планеты, и пока мировое сообщество решало, что с ними делать дальше, для них был организован временный лагерь в южноафриканском Районе N9.

    Возраст: 16+ (зрителям, достигшим 16 лет)
    Рейтинг MPAA: R (лицам до 17 лет обязательно присутствие взрослого)
    Дата мировой премьеры: 13 августа 2009
    Дата российской премьеры: 13 августа 2009
    Продолжительность: 01: 52: 15
    Качество видео: HDRip
    Перевод: Дублированный (Лицензия)
    Субтитры: Русские (форсированные, полные), Английские (полные)
    Видео: AVC/H.264, 1920x1038, ~3278 Kbps
    Аудио: AC3, 6 ch, 384 Kbps
    Общее
    Полное имя : F: !DownloadcompleteРайон №9 2009 1080p.mp4
    Формат : MPEG-4
    Профиль формата : Base Media
    Идентификатор кодека : isom (isom/avc1/iso6)
    Размер файла : 2, 87 Гбайт
    Продолжительность : 1 ч. 52 м.
    Режим общего битрейта : Переменный
    Общий поток : 3664 Кбит/сек
    Дата кодирования : UTC 2018-01-23 10: 38: 29
    Дата пометки : UTC 2018-01-23 10: 38: 29
    Видео
    Идентификатор : 1
    Формат : AVC
    Формат/Информация : Advanced Video Codec
    Профиль формата : High@L4
    Настройки формата : CABAC/2 Ref Frames
    Параметр CABAC формата : Да
    Параметр RefFrames формата : 2 кадра
    Идентификатор кодека : avc1
    Идентификатор кодека/Информация : Advanced Video Coding
    Продолжительность : 1 ч. 52 м.
    Битрейт : 3278 Кбит/сек
    Максимальный битрейт : 10, 6 Мбит/сек
    Ширина : 1920 пикселей
    Высота : 1038 пикселей
    Соотношение сторон : 1, 85: 1
    Режим частоты кадров : Постоянный
    Частота кадров : 23, 976 (24000/1001) кадра/сек
    Цветовое пространство : YUV
    Субдискретизация насыщенности : 4: 2: 0
    Битовая глубина : 8 бит
    Тип развёртки : Прогрессивная
    Бит/(Пиксели*Кадры) : 0.069
    Размер потока : 2, 57 Гбайт (89%)
    Дата кодирования : UTC 2018-01-23 10: 38: 29
    Дата пометки : UTC 2018-01-23 10: 40: 52
    Цветовой диапазон : Limited
    Основные цвета : BT.709
    Характеристики трансфера : BT.709
    Коэффициенты матрицы : BT.709
    Аудио
    Идентификатор : 2
    Формат : AC-3
    Формат/Информация : Audio Coding 3
    Параметр Endianness формата : Big
    Идентификатор кодека : ac-3
    Продолжительность : 1 ч. 52 м.
    Вид битрейта : Постоянный
    Битрейт : 384 Кбит/сек
    Максимальный битрейт : 406 Кбит/сек
    Каналы : 6 каналов
    Расположение каналов : Front: L C R, Side: L R, LFE
    Частота : 48, 0 КГц
    Частота кадров : 31, 250 кадров/сек (1536 SPF)
    Битовая глубина : 16 бит
    Метод сжатия : С потерями
    Размер потока : 308 Мбайт (10%)
    Заголовок : Дублированный (Лицензия)
    Язык : Russian
    ServiceKind/String : Complete Main
    Дата кодирования : UTC 2018-01-23 10: 40: 31
    Дата пометки : UTC 2018-01-23 10: 40: 52
    Текст #1
    Идентификатор : 3
    Формат : Timed Text
    Идентификатор кодека : tx3g
    Продолжительность : 1 ч. 43 м.
    Вид битрейта : Переменный
    Битрейт : 18 бит/сек
    Размер потока : 14, 0 Кбайт (0%)
    Заголовок : Forced
    Язык : Russian
    Forced : Нет
    Дата кодирования : UTC 2018-01-23 10: 40: 52
    Дата пометки : UTC 2018-01-23 10: 40: 52
    Текст #2
    Идентификатор : 4
    Формат : Timed Text
    Идентификатор кодека : tx3g
    Продолжительность : 1 ч. 44 м.
    Вид битрейта : Переменный
    Битрейт : 97 бит/сек
    Размер потока : 74, 4 Кбайт (0%)
    Заголовок : Full
    Язык : Russian
    Forced : Нет
    Дата кодирования : UTC 2018-01-23 10: 40: 52
    Дата пометки : UTC 2018-01-23 10: 40: 52
    Текст #3
    Идентификатор : 5
    Формат : Timed Text
    Идентификатор кодека : tx3g
    Продолжительность : 1 ч. 44 м.
    Вид битрейта : Переменный
    Битрейт : 83 бит/сек
    Размер потока : 63, 6 Кбайт (0%)
    Заголовок : Full
    Язык : English
    Forced : Нет
    Дата кодирования : UTC 2018-01-23 10: 40: 52
    Дата пометки : UTC 2018-01-23 10: 40: 52
    Скриншоты:


    Все одноименные релизы в Клубе
    Время раздачи: с 9: 00 до 21: 00 (до появления первых 3-5 скачавших)

    Район №9 / District 9 (2009) HDRip [H.264] [MP4|1920x1038] торрент скачать бесплатно
    Рейтинг →
     (голосов: 1, оценка 5/5, голосовать можно 1 раз )

    Другие торренты по теме:

  • Clinton Shorter - Район №9 / District 9 (2009) [AAC|WEB-DL|256 Kbps]<Score>
  • Район №9 / District 9 (2009) BDRip [H.264 / 1080p-LQ]
  • Район С-11 / District C-11 (2017) WEB-DLRip [MVO] [AD]
  • Район №9 / District 9 (2009) HDRip [H.264] [MP4|1280x692]
  • Район №9 / District 9 (2009) BDRip
  • Район №9 / District 9 (2009) UHD WEB-DL [H.265 / 2160p-LQ] [4K, HDR, 10-bit]
  • Район №9 / District 9 (2009) BDRip [H.265 / 1080p] [10-bit]


    • Комментарии (0):

      Информация

      Информация

        Посетители, находящиеся в группе Гости, не могут оставлять комментарии в данной новости.

        ↓ Меню




        Популярное