.
Авторизация | Регистрация
bitok.xyz
» » Гарри Поттер и Орден Феникса / Harry Potter and the Order of the Phoenix (2007) HDRip [H.264] [MP4|1920х796] торрент скачать бесплатно


    Гарри Поттер и Орден Феникса / Harry Potter and the Order of the Phoenix (2007) HDRip [H.264] [MP4|1920х796] торрент скачать бесплатно

    Дата: 8-02-2018, 05:00 | .torrent скачали: 38

    Гарри Поттер и Орден Феникса / Harry Potter and the Order of the Phoenix (2007) HDRip [H.264] [MP4|1920х796]Производство: США, Великобритания
    Жанр: Фэнтези, Приключения, Семейный, Детектив
    Режиссер: Дэвид Йэтс
    Продюсер: Дэвид Баррон, Дэвид Хейман, Тим Льюис
    Актеры: Дэниэл Рэдклифф, Эмма Уотсон, Руперт Гринт, Алан Рикман, Джейсон Бойд, Ричард Маклин, Гарри Меллинг, Кэтрин Хантер, Майлз Джапп, Фиона Шоу, Ричард Гриффитс

    Описание

    Гарри проводит свой пятый год обучения в школе Хогвартс и обнаруживает, что многие из членов волшебного сообщества отрицают сам факт недавнего состязания юного волшебника с воплощением вселенского зла Волдемортом, делая вид, что не имеют ни малейшего представления о том, что злодей вернулся. Опасаясь, что почтенный глава Хогвартса Альбус Дамблдор распространяет лживые слухи о возвращении Волдеморта, стремясь подорвать авторитет Министра Магии Корнелиуса Фаджа и в дальнейшем занять его место, Корнелиус назначает нового профессора защиты от темных искусств, который должен будет пристально следить за Дамблдором и студентами Хогвартса. Но одобренный министерством курс лекций по защитной магии профессора Долорес Амбридж оказывается на практике абсолютно бесполезным — юные волшебники просто неспособны противостоять действию темных сил, угрожающих им и всему волшебному сообществу. И тогда, по настоянию своих друзей, Гермионы и Рона, Гарри берет инициативу в свои руки. Тайно встречаясь с небольшой группой студентов, называющей себя Отрядом Дамблдора, Гарри обучает их самозащите от темных сил, готовя отважных волшебников к необычной схватке, которая ждет их впереди.

    Возраст: 12+ (зрителям, достигшим 12 лет)
    Рейтинг MPAA: PG-13 (детям до 13 лет просмотр нежелателен)
    Дата мировой премьеры: 28 июня 2007
    Дата российской премьеры: 19 июля 2007
    Продолжительность: 02: 18: 14
    Качество видео: HDRip
    Перевод: Дублированный (Лицензия)
    Субтитры: Русские (форсированные, полные), Английские (полные)
    Видео: AVC/H.264, 1920х796, ~1651 Kbps
    Аудио: AC3, 6 ch, 384 Kbps
    Общее
    Полное имя : F: !DownloadcompleteГарри Поттер и Орден Феникса 2007 1080p.mp4
    Формат : MPEG-4
    Профиль формата : Base Media
    Идентификатор кодека : isom (isom/avc1/iso6)
    Размер файла : 1, 97 Гбайт
    Продолжительность : 2 ч. 18 м.
    Режим общего битрейта : Переменный
    Общий поток : 2037 Кбит/сек
    Дата кодирования : UTC 2018-01-30 07: 04: 48
    Дата пометки : UTC 2018-01-30 07: 04: 48
    Видео
    Идентификатор : 1
    Формат : AVC
    Формат/Информация : Advanced Video Codec
    Профиль формата : High@L4
    Настройки формата : CABAC/2 Ref Frames
    Параметр CABAC формата : Да
    Параметр RefFrames формата : 2 кадра
    Идентификатор кодека : avc1
    Идентификатор кодека/Информация : Advanced Video Coding
    Продолжительность : 2 ч. 18 м.
    Битрейт : 1651 Кбит/сек
    Максимальный битрейт : 8480 Кбит/сек
    Ширина : 1920 пикселей
    Высота : 796 пикселей
    Соотношение сторон : 2, 40: 1
    Режим частоты кадров : Постоянный
    Частота кадров : 23, 976 (24000/1001) кадра/сек
    Цветовое пространство : YUV
    Субдискретизация насыщенности : 4: 2: 0
    Битовая глубина : 8 бит
    Тип развёртки : Прогрессивная
    Бит/(Пиксели*Кадры) : 0.045
    Размер потока : 1, 59 Гбайт (81%)
    Дата кодирования : UTC 2018-01-30 07: 04: 48
    Дата пометки : UTC 2018-01-30 07: 07: 34
    Цветовой диапазон : Limited
    Основные цвета : BT.709
    Характеристики трансфера : BT.709
    Коэффициенты матрицы : BT.709
    Аудио
    Идентификатор : 2
    Формат : AC-3
    Формат/Информация : Audio Coding 3
    Параметр Endianness формата : Big
    Идентификатор кодека : ac-3
    Продолжительность : 2 ч. 18 м.
    Вид битрейта : Постоянный
    Битрейт : 384 Кбит/сек
    Максимальный битрейт : 406 Кбит/сек
    Каналы : 6 каналов
    Расположение каналов : Front: L C R, Side: L R, LFE
    Частота : 48, 0 КГц
    Частота кадров : 31, 250 кадров/сек (1536 SPF)
    Битовая глубина : 16 бит
    Метод сжатия : С потерями
    Размер потока : 380 Мбайт (19%)
    Заголовок : Дублированный (Лицензия)
    Язык : Russian
    ServiceKind/String : Complete Main
    Дата кодирования : UTC 2018-01-30 07: 07: 07
    Дата пометки : UTC 2018-01-30 07: 07: 34
    Текст #1
    Идентификатор : 3
    Формат : Timed Text
    Идентификатор кодека : tx3g
    Продолжительность : 2 ч. 3 м.
    Вид битрейта : Переменный
    Битрейт : 2 бит/сек
    Размер потока : 1, 53 Кбайт (0%)
    Заголовок : Forced
    Язык : Russian
    Forced : Нет
    Дата кодирования : UTC 2018-01-30 07: 07: 34
    Дата пометки : UTC 2018-01-30 07: 07: 34
    Текст #2
    Идентификатор : 4
    Формат : Timed Text
    Идентификатор кодека : tx3g
    Продолжительность : 2 ч. 18 м.
    Вид битрейта : Переменный
    Битрейт : 81 бит/сек
    Размер потока : 82, 4 Кбайт (0%)
    Заголовок : Full
    Язык : Russian
    Forced : Нет
    Дата кодирования : UTC 2018-01-30 07: 07: 34
    Дата пометки : UTC 2018-01-30 07: 07: 34
    Текст #3
    Идентификатор : 5
    Формат : Timed Text
    Идентификатор кодека : tx3g
    Продолжительность : 2 ч. 7 м.
    Вид битрейта : Переменный
    Битрейт : 49 бит/сек
    Размер потока : 45, 8 Кбайт (0%)
    Заголовок : Full
    Язык : English
    Forced : Нет
    Дата кодирования : UTC 2018-01-30 07: 07: 34
    Дата пометки : UTC 2018-01-30 07: 07: 34
    Скриншоты:


    Все одноименные релизы в Клубе
    Время раздачи: с 9: 00 до 21: 00 (до появления первых 3-5 скачавших)

    Гарри Поттер и Орден Феникса/Harry Potter and the Order of the Phoenix (2007) HDRip [H.264] [MP4|1920х796]
    Рейтинг →
     (голосов: 1, оценка 4/5, голосовать можно 1 раз )

    Другие торренты по теме:

  • Гарри Поттер и Партия Ленина / Гарри Поттер и Орден Феникса / Harry Potter and the Order of the Phoenix (2009) DVDRip
  • Гарри Поттер и Кубок огня / Harry Potter and the Goblet of Fire (2005) HDRip [H.264] [Ultimate Cut]
  • Гарри Поттер и Орден Феникса / Harry Potter and the Order of the Phoenix (2007) HDRip [H.264] [Ultimate Cut]
  • Джоан Роулинг | Гарри Поттер и Кубок огня [2008] [M4B | AAC] скачать через торрент бесплатно
  • Джоан Роулинг | Гарри Поттер и Дары Смерти [2011] [M4B | AAC] скачать через торрент бесплатно
  • Джоан Роулинг | Гарри Поттер и Принц-полукровка [2011] [M4B | AAC] скачать через торрент бесплатно
  • Джоан Роулинг | Гарри Поттер и Орден Феникса [2008] [M4B | AAC] скачать через торрент бесплатно
  • Джоан Роулинг | Гарри Поттер и узник Азкабана [2006] [M4B | AAC] скачать через торрент бесплатно


    • Комментарии (0):

      Информация

      Информация

        Посетители, находящиеся в группе Гости, не могут оставлять комментарии в данной новости.

        ↓ Меню




        ↓ Опрос

        Вы добавили сайт в закладки?
        Да
        Нет


        Популярное

        Властелин Колец: Братва и кольцо / Две сорванные башни / Возвращение Бомжа (2002 / 2003 / 2004) (Трилогия) BDRip [H.264] [MP4|1920x1080] Гоблин [Пародия]

        (скачиваний: 855)
        Властелин колец: Трилогия (The Lord of the Rings: Trilogy) (Extended Cut) (2001 / 2002 / 2003) [MP4 | 960x400] <BDRip H.264>

        (скачиваний: 612)
        Карты для iGo 2019.Q2 HERE (NQ, NavTeq) Европа [25.07.2019]

        (скачиваний: 346)
        Кукутики: Полная коллекция / (Kukutiki: Full collection) (2015-2018) WEB-DLRip [H.264] (Серии 1-79 из 79 + Караоке версии 1-16 из 16) [MP4|1280x720]

        (скачиваний: 228)
        Гарри Поттер и Орден Феникса / Harry Potter and the Order of the Phoenix (2007) HDRip [H.264] [MP4|1920х796]

        (скачиваний: 206)
        Гарри Поттер и Дары смерти Часть 1 / Harry Potter and the Deathly Hallows Part 1 (2010) HDRip [H.264] [MP4|1920x800]

        (скачиваний: 162)
        Navitel / Навител Навигатор v9.11.780 WinCE [Ru]

        (скачиваний: 147)
        Хоббит + Властелин колец: Полная коллекция / The Hobbit + The Lord of the Rings: Full collection (2001-2014) HDRip [H.264] [MP4|640х272] скачать через торрент бесплатно

        (скачиваний: 131)
        NaviTel / Навител Навигатор v9.10.2281 [Ru / Multi] (Windows CE)

        (скачиваний: 127)
        Navitel / Навител Навигатор 9.10.2325 Full для карт релиза Q3-2019 [Ru / Multi]

        (скачиваний: 126)