.
Авторизация | Регистрация
bitok.xyz
Торрент скачать бесплатно КПК и мобильные торрент скачать Бегущий по Лезвию / Blade Runner (1982) BDRip [H.264] [Финальная версия] [VO] [MP4|1280x534] торрент скачать бесплатно


    Бегущий по Лезвию / Blade Runner (1982) BDRip [H.264] [Финальная версия] [VO] [MP4|1280x534] торрент скачать бесплатно

    Дата: 3-11-2019, 05:00 | .torrent скачали: 5

    Бегущий по Лезвию / Blade Runner (1982) BDRip [H.264] [Финальная версия] [VO] [MP4|1280x534]Производство: США/The Ladd Company, Shaw Brothers, Warner Bros., Blade Runner Partnership
    Жанр: Фантастика, Триллер, Драма, Мелодрама
    Режиссер: Ридли Скотт
    Актеры: Харрисон Форд, Рутгер Хауэр, Шон Янг, Эдвард Джеймс Олмос, М. Эммет Уолш, Дэрил Ханна, Уильям Сэндерсон, Брайон Джеймс, Джо Тёркел, Джоанна Кэссиди

    Описание

    Отставной детектив Рик Декард вновь восстановлен в полиции Лос-Анджелеса для поиска возглавляемой Роем Батти группы киборгов, совершившей побег из космической колонии на Землю.
    В полиции считают, что киборги пытаются встретиться с Эндолом Тайреллом, руководителем корпорации, ставящей эксперименты над кибернетическим интеллектом. Рик Декард получает задание выяснить мотивы действий киборгов, а затем уничтожить их.

    Возраст: 16+ (зрителям, достигшим 16 лет)
    Рейтинг MPAA: R (лицам до 17 лет обязательно присутствие взрослого)
    Продолжительность: 01: 57: 31
    Качество видео: BDRip
    Перевод: Одноголосый любительский (VHSник )
    Субтитры: нет
    Видео: AVC, 1280x534, ~4857 Кbps
    Аудио: AAC, 2 ch, ~192 kbps - Русский
    General
    Complete name : E: Бегущий по лезвию - VHSник.mp4
    Format : MPEG-4
    Format profile : Base Media/Version 2
    Codec ID : mp42 (isom/mp42)
    File size : 4.15 GiB
    Duration : 1 h 57 min
    Overall bit rate mode : Variable
    Overall bit rate : 5 050 kb/s
    Encoded date : UTC 2019-10-05 10: 12: 08
    Tagged date : UTC 2019-10-05 10: 12: 08
    Video
    ID : 1
    Format : AVC
    Format/Info : Advanced Video Codec
    Format profile : High@L3.1
    Format settings : CABAC/1 Ref Frames
    Format settings, CABAC : Yes
    Format settings, ReFrames : 1 frame
    Format settings, GOP : M=1, N=30
    Codec ID : avc1
    Codec ID/Info : Advanced Video Coding
    Duration : 1 h 57 min
    Source duration : 1 h 57 min
    Bit rate : 4 857 kb/s
    Width : 1 280 pixels
    Height : 534 pixels
    Display aspect ratio : 2.40: 1
    Frame rate mode : Constant
    Frame rate : 23.976 (24000/1001) FPS
    Color space : YUV
    Chroma subsampling : 4: 2: 0
    Bit depth : 8 bits
    Scan type : Progressive
    Bits/(Pixel*Frame) : 0.296
    Stream size : 3.99 GiB (96%)
    Source stream size : 3.99 GiB (96%)
    Language : English
    Encoded date : UTC 2019-10-05 10: 12: 08
    Tagged date : UTC 2019-10-05 10: 12: 08
    Codec configuration box : avcC
    Audio
    ID : 2
    Format : AAC LC
    Format/Info : Advanced Audio Codec Low Complexity
    Codec ID : mp4a-40-2
    Duration : 1 h 57 min
    Bit rate mode : Variable
    Bit rate : 192 kb/s
    Maximum bit rate : 421 kb/s
    Channel(s) : 2 channels
    Channel layout : L R
    Sampling rate : 48.0 kHz
    Frame rate : 46.875 FPS (1024 SPF)
    Compression mode : Lossy
    Stream size : 159 MiB (4%)
    Language : English
    Encoded date : UTC 2019-10-05 10: 12: 08
    Tagged date : UTC 2019-10-05 10: 12: 08


    Бегущий по Лезвию / Blade Runner (1982) BDRip [H.264] [Финальная версия] [VO] [MP4|1280x534] торрент скачать бесплатно
    Рейтинг →
     (голосов: 1, оценка 5/5, голосовать можно 1 раз )

    Другие торренты по теме:

  • Бегущий по лезвию / Blade Runner (1982) HDRip [Final Cut] скачать через торрент бесплатно
  • Бегущий по лезвию / Blade Runner (1982) BDRip [H.264 / 1080p] [The Final Cut]
  • Бегущий по лезвию / Blade Runner (1982) [Final Cut] AC3 5.1 [Solod]
  • Бегущий по лезвию бритвы / Blade Runner (1982) BDRip [H.265 / 720р-LQ] [Final Cut]
  • Бегущий по лезвию 2049 / Blade Runner 2049 (2017) WEBRip [H.264 / 1080p] [Трейлер#2] [EN]
  • Blade Runner: Black Out 2022 | Бегущий по лезвию: отключение света 2022 [2017, Special, 1 эп.] WEB-DL 1080p raw
  • Hans Zimmer & Benjamin Wallfisch - Blade Runner 2049 / Бегущий по лезвию 2049 (Original Motion Picture Soundtrack) (2017) [MP3|320 кб / с]<Soundtrack>
  • Hans Zimmer & Benjamin Wallfisch - Blade Runner 2049 / Бегущий по лезвию 2049 (Original Motion Picture Soundtrack) (2017) [FLAC|Lossless|WEB-DL|tracks]<Soundtrack>


    • Комментарии (0):

      Информация

      Информация

        Посетители, находящиеся в группе Гости, не могут оставлять комментарии в данной новости.

        ↓ Меню




        ↓ Опрос

        Вы добавили сайт в закладки?
        Да
        Нет


        Популярное

        Карты для iGo 2019.Q2 HERE (NQ, NavTeq) Европа [25.07.2019]

        (скачиваний: 148)
        Гоголь: Начало, Вий, Месть. Трилогия (2017, 2018) HDRip [H.264] [MP4|1080p]

        (скачиваний: 144)
        Властелин Колец: Братва и кольцо / Две сорванные башни / Возвращение Бомжа (2002 / 2003 / 2004) (Трилогия) BDRip [H.264] [MP4|1920x1080] Гоблин [Пародия]

        (скачиваний: 131)
        Властелин колец: Трилогия (The Lord of the Rings: Trilogy) (Extended Cut) (2001 / 2002 / 2003) [MP4 | 960x400] <BDRip H.264>

        (скачиваний: 71)
        Кукутики: Полная коллекция / (Kukutiki: Full collection) (2015-2018) WEB-DLRip [H.264] (Серии 1-79 из 79 + Караоке версии 1-16 из 16) [MP4|1280x720]

        (скачиваний: 70)
        Начало / Inception (2010) DVDRip [MP4|640x272]

        (скачиваний: 38)
        Нереальная история. Менделеев и раствор (2012-2013) WEBRip [H.264] (серии 1-13 из 13) [MP4|720x404] [нарезка]

        (скачиваний: 32)
        NaviTel / Навител Навигатор v9.10.2281 [Ru / Multi] (Windows CE)

        (скачиваний: 32)
        Разлом Сан-Андреас / San Andreas (2015) HDRip [H.264] [MP4|960х400] скачать через торрент бесплатно

        (скачиваний: 30)
        Сборка iGO Primo NextGen 9.19.1.484935 WinCE [Ru / Multi] - навигационный программный комплекс для устройств с WinCE скачать через торрент бесплатно

        (скачиваний: 28)