.
Авторизация | Регистрация
bitok.xyz
Торрент скачать бесплатно КПК и мобильные торрент скачать Виндикатор / Мститель / The Vindicator (1986) VHSRip [H.264] [MP4|480x360] торрент скачать бесплатно


    Виндикатор / Мститель / The Vindicator (1986) VHSRip [H.264] [MP4|480x360] торрент скачать бесплатно

    Дата: 6-11-2019, 05:00 | .torrent скачали: 2

    Виндикатор / Мститель / The Vindicator (1986) VHSRip [H.264] [MP4|480x360]Производство: Канада/Frank Stein Film Productions, Michael Levy Enterprises
    Жанр: Ужасы, фантастика, боевик
    Режиссер: Жан-Клод Лорд
    Актеры: Дэвид Макилрайт, Тери Остин, Ричард Кокс, Пэм Гриер, Мори Чайкин, Катрин Дишер, Стивен Мендел, Мики Мур, Ларри Обри, Линда Мэйсон Грин

    Описание

    Учёного, серьёзно пострадавшего в результате взрыва в лаборатории, оживляют, но уже в качестве смертоносного киборга. Однако он оживает и ухитряется перепрограммировать себя, чтобы отомстить своим создателям.

    Рейтинг MPAA: R (лицам до 17 лет обязательно присутствие взрослого)
    Продолжительность: 01: 26: 06
    Качество видео: VHSRip
    Перевод: Одноголосый любительский (женский)
    Субтитры: отсутствуют
    Видео: AVC/H.264, 480x360, ~500 Kbps
    Аудио: AAC, 2 ch, 128 Kbps
    Общее
    Полное имя : X: WtorrentВиндикатор.1986.VHSRipВиндикатор.1986.VHSRip.mp4
    Формат : MPEG-4
    Профиль формата : Base Media
    Идентификатор кодека : isom (isom/iso2/avc1/mp41)
    Размер файла : 387 Мбайт
    Продолжительность : 1 ч. 26 м.
    Режим общего битрейта : Переменный
    Общий поток : 629 Кбит/сек
    Программа кодирования : Lavf58.20.100
    Видео
    Идентификатор : 1
    Формат : AVC
    Формат/Информация : Advanced Video Codec
    Профиль формата : Baseline@L2.1
    Настройки формата : 1 Ref Frames
    Параметр CABAC формата : Нет
    Параметр RefFrames формата : 1 кадр
    Параметр GOP формата : M=1, N=25
    Идентификатор кодека : avc1
    Идентификатор кодека/Информация : Advanced Video Coding
    Продолжительность : 1 ч. 26 м.
    Вид битрейта : Переменный
    Битрейт : 495 Кбит/сек
    Максимальный битрейт : 1500 Кбит/сек
    Ширина : 480 пикселей
    Высота : 360 пикселей
    Соотношение сторон : 4: 3
    Режим частоты кадров : Постоянный
    Частота кадров : 25, 000 кадров/сек
    Цветовое пространство : YUV
    Субдискретизация насыщенности : 4: 2: 0
    Битовая глубина : 8 бит
    Тип развёртки : Прогрессивная
    Бит/(Пиксели*Кадры) : 0.115
    Размер потока : 305 Мбайт (79%)
    Codec configuration box : avcC
    Аудио
    Идентификатор : 2
    Формат : AAC LC
    Формат/Информация : Advanced Audio Codec Low Complexity
    Идентификатор кодека : mp4a-40-2
    Продолжительность : 1 ч. 26 м.
    Вид битрейта : Постоянный
    Битрейт : 128 Кбит/сек
    Каналы : 2 канала
    Channel layout : L R
    Частота : 44, 1 КГц
    Частота кадров : 43, 066 кадра/сек (1024 SPF)
    Метод сжатия : С потерями
    Размер потока : 78, 8 Мбайт (20%)
    Default : Да
    AlternateGroup/String : 1
    Скриншоты:


    Все одноименные релизы в Клубе
    Время раздачи: с 21: 00 до 05: 00 (до появления первых 3-5 скачавших)

    Виндикатор / Мститель / The Vindicator (1986) VHSRip [H.264] [MP4|480x360] торрент скачать бесплатно
    Рейтинг →
     (голосов: 1, оценка 4/5, голосовать можно 1 раз )

    Другие торренты по теме:



      Комментарии (0):

      Информация

      Информация

        Посетители, находящиеся в группе Гости, не могут оставлять комментарии в данной новости.

        ↓ Меню




        ↓ Опрос

        Вы добавили сайт в закладки?
        Да
        Нет


        Популярное

        Карты для iGo 2019.Q2 HERE (NQ, NavTeq) Европа [25.07.2019]

        (скачиваний: 155)
        Гоголь: Начало, Вий, Месть. Трилогия (2017, 2018) HDRip [H.264] [MP4|1080p]

        (скачиваний: 144)
        Властелин Колец: Братва и кольцо / Две сорванные башни / Возвращение Бомжа (2002 / 2003 / 2004) (Трилогия) BDRip [H.264] [MP4|1920x1080] Гоблин [Пародия]

        (скачиваний: 134)
        Властелин колец: Трилогия (The Lord of the Rings: Trilogy) (Extended Cut) (2001 / 2002 / 2003) [MP4 | 960x400] <BDRip H.264>

        (скачиваний: 71)
        Кукутики: Полная коллекция / (Kukutiki: Full collection) (2015-2018) WEB-DLRip [H.264] (Серии 1-79 из 79 + Караоке версии 1-16 из 16) [MP4|1280x720]

        (скачиваний: 70)
        Начало / Inception (2010) DVDRip [MP4|640x272]

        (скачиваний: 38)
        Нереальная история. Менделеев и раствор (2012-2013) WEBRip [H.264] (серии 1-13 из 13) [MP4|720x404] [нарезка]

        (скачиваний: 32)
        NaviTel / Навител Навигатор v9.10.2281 [Ru / Multi] (Windows CE)

        (скачиваний: 32)
        Сборка iGO Primo NextGen 9.19.1.484935 WinCE [Ru / Multi] - навигационный программный комплекс для устройств с WinCE скачать через торрент бесплатно

        (скачиваний: 31)
        Разлом Сан-Андреас / San Andreas (2015) HDRip [H.264] [MP4|960х400] скачать через торрент бесплатно

        (скачиваний: 30)