.
Авторизация | Регистрация
bitok.xyz
Торрент скачать бесплатно КПК и мобильные торрент скачать Продаётся Субраманьям / Subramanyam For Sale (2015) HDRip [H.264] [MP4|1280x720] торрент скачать бесплатно


    Продаётся Субраманьям / Subramanyam For Sale (2015) HDRip [H.264] [MP4|1280x720] торрент скачать бесплатно

    Дата: 14-11-2019, 05:00 | .torrent скачали: 1

    Продаётся Субраманьям / Subramanyam For Sale (2015) HDRip [H.264] [MP4|1280x720]Производство: Индия/Sri Venkateswara Creations
    Жанр: комедия
    Режиссер: Хэриш Шанкар
    Продюсер: Гуру Бобба
    Актеры: Виктор Коста, Кришна Нагулапалли, Саи Дхарам Тедж, Регина Кассандра, Ада Шарма, Брахманандам, Бриана Жустина Хэрмон, Суман, Аджай

    Описание

    Субраманьям - обычный индийский парень, уехавший на заработки в Америку. Молодой человек очень быстро усвоил основное правило жизни эмигранта - зарабатывай везде, на всем и на всех. Но не спешите записывать нашего героя в беспринципные стяжатели! Все не так, как кажется на первый взгляд, и, поверьте, эту фразу вы не раз вспомните по ходу просмотра этой милой и доброй романтической комедии режиссера Хариша Шанкара!

    Продолжительность: 02: 31: 46
    Качество видео: HDRip
    Перевод: Многоголосый любительский
    Видео: AVC/H.264, 1280x720, ~1 424 Kbps
    Аудио: AAC, 2 ch, 230 Kbps
    General
    Complete name : DownloadsПродается субраманьям.mp4
    Format : MPEG-4
    Format profile : Base Media
    Codec ID : isom (isom/iso2/avc1/mp41)
    File size : 1.76 GiB
    Duration : 2 h 31 min
    Overall bit rate : 1 658 kb/s
    Writing application : Lavf57.63.100
    Video
    ID : 1
    Format : AVC
    Format/Info : Advanced Video Codec
    Format profile : High@L3.1
    Format settings : CABAC/4 Ref Frames
    Format settings, CABAC : Yes
    Format settings, Reference frames : 4 frames
    Codec ID : avc1
    Codec ID/Info : Advanced Video Coding
    Duration : 2 h 31 min
    Bit rate : 1 424 kb/s
    Width : 1 280 pixels
    Height : 720 pixels
    Display aspect ratio : 16: 9
    Frame rate mode : Constant
    Frame rate : 24.000 FPS
    Color space : YUV
    Chroma subsampling : 4: 2: 0
    Bit depth : 8 bits
    Scan type : Progressive
    Bits/(Pixel*Frame) : 0.064
    Stream size : 1.51 GiB (86%)
    Tagged date : UTC 2017-08-05 19: 03: 14
    Codec configuration box : avcC
    Audio
    ID : 2
    Format : AAC LC
    Format/Info : Advanced Audio Codec Low Complexity
    Codec ID : mp4a-40-2
    Duration : 2 h 31 min
    Duration_FirstFrame : 18 ms
    Duration_LastFrame : -6 ms
    Bit rate mode : Constant
    Bit rate : 230 kb/s
    Channel(s) : 2 channels
    Channel layout : L R
    Sampling rate : 44.1 kHz
    Frame rate : 43.066 FPS (1024 SPF)
    Compression mode : Lossy
    Stream size : 250 MiB (14%)
    Default : Yes
    Alternate group : 1
    Tagged date : UTC 2017-08-05 19: 03: 14
    Скриншоты:


    Все одноименные релизы в Клубе
    Время раздачи: с 23: 00 до 8: 30 (до появления первых 3-5 скачавших)

    Продаётся Субраманьям / Subramanyam For Sale (2015) HDRip [H.264] [MP4|1280x720] торрент скачать бесплатно
    Рейтинг →
     (голосов: 1, оценка 5/5, голосовать можно 1 раз )

    Другие торренты по теме:



      Комментарии (0):

      Информация

      Информация

        Посетители, находящиеся в группе Гости, не могут оставлять комментарии в данной новости.

        ↓ Меню




        ↓ Опрос

        Вы добавили сайт в закладки?
        Да
        Нет


        Популярное

        Карты для iGo 2019.Q2 HERE (NQ, NavTeq) Европа [25.07.2019]

        (скачиваний: 155)
        Гоголь: Начало, Вий, Месть. Трилогия (2017, 2018) HDRip [H.264] [MP4|1080p]

        (скачиваний: 144)
        Властелин Колец: Братва и кольцо / Две сорванные башни / Возвращение Бомжа (2002 / 2003 / 2004) (Трилогия) BDRip [H.264] [MP4|1920x1080] Гоблин [Пародия]

        (скачиваний: 134)
        Властелин колец: Трилогия (The Lord of the Rings: Trilogy) (Extended Cut) (2001 / 2002 / 2003) [MP4 | 960x400] <BDRip H.264>

        (скачиваний: 71)
        Кукутики: Полная коллекция / (Kukutiki: Full collection) (2015-2018) WEB-DLRip [H.264] (Серии 1-79 из 79 + Караоке версии 1-16 из 16) [MP4|1280x720]

        (скачиваний: 70)
        Начало / Inception (2010) DVDRip [MP4|640x272]

        (скачиваний: 38)
        Нереальная история. Менделеев и раствор (2012-2013) WEBRip [H.264] (серии 1-13 из 13) [MP4|720x404] [нарезка]

        (скачиваний: 32)
        NaviTel / Навител Навигатор v9.10.2281 [Ru / Multi] (Windows CE)

        (скачиваний: 32)
        Сборка iGO Primo NextGen 9.19.1.484935 WinCE [Ru / Multi] - навигационный программный комплекс для устройств с WinCE скачать через торрент бесплатно

        (скачиваний: 31)
        Разлом Сан-Андреас / San Andreas (2015) HDRip [H.264] [MP4|960х400] скачать через торрент бесплатно

        (скачиваний: 30)