.
Авторизация | Регистрация
bitok.xyz
Торрент скачать бесплатно КПК и мобильные торрент скачать Бренды Советской эпохи (2013-2019) (133 серии) WEBRip [H.264] [MP4|854x480@874x480] торрент скачать бесплатно


    Бренды Советской эпохи (2013-2019) (133 серии) WEBRip [H.264] [MP4|854x480@874x480] торрент скачать бесплатно

    Дата: 21-11-2019, 05:00 | .torrent скачали: 17

    Бренды Советской эпохи (2013-2019) (133 серии) WEBRip [H.264] [MP4|854x480@874x480]Производство: Россия/Телеканал Красная линия
    Жанр: Документальный

    Описание

    В этом сериале вы увидите какая продукция была брендом Советской эпохи.
    Продолжительность: 133 серии x ~00: 05: 03
    Качество видео: WEBRip
    Видео: AVC/H.264, 854x480@874x480, ~1200 Kbps
    Аудио: AAC, 1 ch, 32 Kbps
    Общее
    Полное имя : X: WtorrentБренды Советской эпохиБренды Советской эпохи.2013-2019.WEBRip55. Советские трактора.mp4
    Формат : MPEG-4
    Профиль формата : Base Media
    Идентификатор кодека : isom (isom)
    Размер файла : 44, 1 Мбайт
    Продолжительность : 5 м. 3 с.
    Режим общего битрейта : Переменный
    Общий поток : 1220 Кбит/сек
    Дата кодирования : UTC 2018-02-21 15: 11: 35
    Дата пометки : UTC 2018-02-21 15: 11: 35
    Видео
    Идентификатор : 1
    Формат : AVC
    Формат/Информация : Advanced Video Codec
    Профиль формата : Main@L3
    Настройки формата : CABAC/4 Ref Frames
    Параметр CABAC формата : Да
    Параметр RefFrames формата : 4 кадра
    Идентификатор кодека : avc1
    Идентификатор кодека/Информация : Advanced Video Coding
    Продолжительность : 5 м. 3 с.
    Битрейт : 1200 Кбит/сек
    Максимальный битрейт : 3320 Кбит/сек
    Ширина : 854 пикселя
    Высота : 480 пикселей
    Соотношение сторон : 1, 85: 1
    Режим частоты кадров : Постоянный
    Частота кадров : 25, 000 кадров/сек
    Цветовое пространство : YUV
    Субдискретизация насыщенности : 4: 2: 0
    Битовая глубина : 8 бит
    Тип развёртки : Прогрессивная
    Бит/(Пиксели*Кадры) : 0.117
    Размер потока : 42, 8 Мбайт (97%)
    Библиотека кодирования : x264 core 125
    Настройки программы : cabac=1/ref=1/deblock=1: 0: 0/analyse=0x1: 0/me=dia/subme=1/psy=1/psy_rd=1.00: 0.00/mixed_ref=0/me_range=16/chroma_me=1/trellis=0/8x8dct=0/cqm=0/deadzone=21, 11/fast_pskip=1/chroma_qp_offset=0/threads=12/lookahead_threads=2/sliced_threads=0/nr=0/decimate=1/interlaced=0/bluray_compat=0/constrained_intra=0/bframes=3/b_pyramid=2/b_adapt=1/b_bias=0/direct=1/weightb=1/open_gop=0/weightp=0/keyint=250/keyint_min=25/scenecut=40/intra_refresh=0/rc=abr/mbtree=0/bitrate=1200/ratetol=1.0/qcomp=0.60/qpmin=10/qpmax=51/qpstep=4/ip_ratio=1.41/pb_ratio=1.25/aq=1: 1.00
    Язык : English
    Дата кодирования : UTC 1970-01-01 00: 00: 00
    Дата пометки : UTC 2018-02-21 15: 11: 35
    Codec configuration box : avcC
    Аудио
    Идентификатор : 2
    Формат : AAC LC
    Формат/Информация : Advanced Audio Codec Low Complexity
    Идентификатор кодека : mp4a-40-2
    Продолжительность : 5 м. 2 с.
    Вид битрейта : Переменный
    Битрейт : 31, 8 Кбит/сек
    Максимальный битрейт : 36, 1 Кбит/сек
    Каналы : 1 канал
    Channel layout : C
    Частота : 48, 0 КГц
    Частота кадров : 46, 875 кадров/сек (1024 SPF)
    Метод сжатия : С потерями
    Размер потока : 1, 15 Мбайт (3%)
    Язык : English
    Дата кодирования : UTC 2016-01-24 12: 39: 03
    Дата пометки : UTC 2018-02-21 15: 11: 35


    Бренды Советской эпохи (2013-2019) (133 серии) WEBRip [H.264] [MP4|854x480@874x480] торрент скачать бесплатно
    Рейтинг →
     (голосов: 1, оценка 3/5, голосовать можно 1 раз )

    Другие торренты по теме:

  • Бренды Советской эпохи. ГОСТ (2016) SATRip
  • Бренды Советской Эпохи (серии 84 из) (2013-2016) SATRip
  • Бренды Советской Эпохи. Часть 2 (2016-2018) IPTVRip [H.264] (51 серия)


    • Комментарии (0):

      Информация

      Информация

        Посетители, находящиеся в группе Гости, не могут оставлять комментарии в данной новости.

        ↓ Меню




        ↓ Опрос

        Вы добавили сайт в закладки?
        Да
        Нет


        Популярное

        Карты для iGo 2019.Q2 HERE (NQ, NavTeq) Европа [25.07.2019]

        (скачиваний: 155)
        Гоголь: Начало, Вий, Месть. Трилогия (2017, 2018) HDRip [H.264] [MP4|1080p]

        (скачиваний: 144)
        Властелин Колец: Братва и кольцо / Две сорванные башни / Возвращение Бомжа (2002 / 2003 / 2004) (Трилогия) BDRip [H.264] [MP4|1920x1080] Гоблин [Пародия]

        (скачиваний: 134)
        Властелин колец: Трилогия (The Lord of the Rings: Trilogy) (Extended Cut) (2001 / 2002 / 2003) [MP4 | 960x400] <BDRip H.264>

        (скачиваний: 71)
        Кукутики: Полная коллекция / (Kukutiki: Full collection) (2015-2018) WEB-DLRip [H.264] (Серии 1-79 из 79 + Караоке версии 1-16 из 16) [MP4|1280x720]

        (скачиваний: 70)
        Начало / Inception (2010) DVDRip [MP4|640x272]

        (скачиваний: 38)
        Нереальная история. Менделеев и раствор (2012-2013) WEBRip [H.264] (серии 1-13 из 13) [MP4|720x404] [нарезка]

        (скачиваний: 32)
        NaviTel / Навител Навигатор v9.10.2281 [Ru / Multi] (Windows CE)

        (скачиваний: 32)
        Сборка iGO Primo NextGen 9.19.1.484935 WinCE [Ru / Multi] - навигационный программный комплекс для устройств с WinCE скачать через торрент бесплатно

        (скачиваний: 31)
        Разлом Сан-Андреас / San Andreas (2015) HDRip [H.264] [MP4|960х400] скачать через торрент бесплатно

        (скачиваний: 30)